Вы используете незарегистрированную версию компонента "Вкладки"!

Поиск

(free jazz, avant-garde) [cd] Russ Lossing - Phrase 6 2004, FLAC FLAC (tracks+.cue), lossless

(free jazz, avant-garde) [cd] Russ Lossing - Phrase 6 2004, FLAC FLAC (tracks+.cue), lossless
Треклист:
(free jazz, avant-garde) [cd] Russ Lossing - Phrase 6 2004, FLAC FLAC (tracks+.cue), lossless


Russ Lossing - Phrase 6 2004

Жанр:free jazz, avant-garde
Год выпуска: 2004
Издатель (лейбл):Fresh Sound Records / FSNT205
Формат: FLAC (tracks+.cue)
Битрейт аудио: lossless
Источник: what.cd

tracks

1. Virgil (8:13)
2. Down By The Glenside (5:42)
3. Koan (6:39)
4. Phrase 6 (7:45)
5. Spider's Web (5:13)
6. Silent Knowledge (8:41)
7. ZeroUno (8:43)
8. Canto 1 (11:36)
9. Dexterity (4:14)
Total length: 01:06:46


 
.log
Exact Audio Copy V1.0 beta 4 from 7. December 2014
EAC extraction logfile from 18. August 2015, 22:46
Russ Lossing / Phrase 6
Used drive : hp DVDRAM GU90N Adapter: 1 ID: 0
Read mode : Secure
Utilize accurate stream : Yes
Defeat audio cache : Yes
Make use of C2 pointers : No
Read offset correction : 102
Overread into Lead-In and Lead-Out : No
Fill up missing offset samples with silence : Yes
Delete leading and trailing silent blocks : No
Null samples used in CRC calculations : Yes
Used interface : Native Win32 interface for Win NT & 2000
Gap handling : Appended to previous track
Used output format : User Defined Encoder
Selected bitrate : 1024 kBit/s
Quality : High
Add ID3 tag : No
Command line compressor : C:\Program Files (x86)\Exact Audio Copy\Flac\flac.exe
Additional command line options : -8 -V -T "ARTIST=%artist%" -T "TITLE=%title%" -T "ALBUM=%albumtitle%" -T "DATE=%year%" -T "TRACKNUMBER=%tracknr%" -T "GENRE=%genre%" -T "PERFORMER=%albuminterpret%" -T "COMPOSER=%composer%" %haslyrics%--tag-from-file=LYRICS="%lyricsfile%"%haslyrics% -T "ALBUMARTIST=%albumartist%" -T "DISCNUMBER=%cdnumber%" -T "TOTALDISCS=%totalcds%" -T "TOTALTRACKS=%numtracks%" -T "COMMENT=%comment%" %source% -o %dest%
TOC of the extracted CD
Track | Start | Length | Start sector | End sector
---------------------------------------------------------
1 | 0:00.00 | 8:16.10 | 0 | 37209
2 | 8:16.10 | 5:45.13 | 37210 | 63097
3 | 14:01.23 | 6:42.34 | 63098 | 93281
4 | 20:43.57 | 7:47.26 | 93282 | 128332
5 | 28:31.08 | 5:15.49 | 128333 | 152006
6 | 33:46.57 | 8:44.66 | 152007 | 191372
7 | 42:31.48 | 8:45.44 | 191373 | 230791
8 | 51:17.17 | 11:38.29 | 230792 | 283170
9 | 62:55.46 | 4:14.13 | 283171 | 302233
Track 1
Filename C:\Users\Mariko\Music\01 - virgil.wav
Pre-gap length 0:00:02.00
Peak level 99.9 %
Extraction speed 2.8 X
Track quality 100.0 %
Test CRC CE7A11C8
Copy CRC CE7A11C8
Accurately ripped (confidence 1) [895C87D4] (AR v1)
Copy OK
Track 2
Filename C:\Users\Mariko\Music\02 - down by the glenside (peadar kearney).wav
Pre-gap length 0:00:03.00
Peak level 93.0 %
Extraction speed 3.1 X
Track quality 100.0 %
Test CRC 1A08BB41
Copy CRC 1A08BB41
Accurately ripped (confidence 1) [9F180348] (AR v1)
Copy OK
Track 3
Filename C:\Users\Mariko\Music\03 - koan.wav
Pre-gap length 0:00:03.00
Peak level 99.9 %
Extraction speed 3.5 X
Track quality 100.0 %
Test CRC B733EE3B
Copy CRC B733EE3B
Accurately ripped (confidence 1) [53B83F82] (AR v1)
Copy OK
Track 4
Filename C:\Users\Mariko\Music\04 - phrase 6.wav
Pre-gap length 0:00:03.00
Peak level 99.9 %
Extraction speed 3.8 X
Track quality 100.0 %
Test CRC 68B0A546
Copy CRC 68B0A546
Accurately ripped (confidence 1) [078CCFF0] (AR v1)
Copy OK
Track 5
Filename C:\Users\Mariko\Music\05 - spider's web.wav
Pre-gap length 0:00:02.00
Peak level 99.9 %
Extraction speed 3.9 X
Track quality 100.0 %
Test CRC C07925BE
Copy CRC C07925BE
Accurately ripped (confidence 1) [6FA50CE6] (AR v1)
Copy OK
Track 6
Filename C:\Users\Mariko\Music\06 - silent knowledge.wav
Pre-gap length 0:00:02.00
Peak level 99.9 %
Extraction speed 3.9 X
Track quality 99.9 %
Test CRC 77BC660A
Copy CRC 77BC660A
Accurately ripped (confidence 1) [E23525A4] (AR v1)
Copy OK
Track 7
Filename C:\Users\Mariko\Music\07 - zero uno (lossing,herbert,williams).wav
Pre-gap length 0:00:03.00
Peak level 99.9 %
Extraction speed 4.7 X
Track quality 100.0 %
Test CRC D1F1D9D9
Copy CRC D1F1D9D9
Accurately ripped (confidence 1) [86731D0A] (AR v1)
Copy OK
Track 8
Filename C:\Users\Mariko\Music\08 - canto.wav
Pre-gap length 0:00:02.00
Peak level 99.9 %
Extraction speed 5.1 X
Track quality 100.0 %
Test CRC 172E8440
Copy CRC 172E8440
Accurately ripped (confidence 1) [42F12030] (AR v1)
Copy OK
Track 9
Filename C:\Users\Mariko\Music\09 - dexterity (charlie parker).wav
Pre-gap length 0:00:02.00
Peak level 99.9 %
Extraction speed 4.9 X
Track quality 100.0 %
Test CRC 80BE4E92
Copy CRC 80BE4E92
Accurately ripped (confidence 1) [75831091] (AR v1)
Copy OK
All tracks accurately ripped
No errors occurred
End of status report
---- CUETools DB Plugin V2.1.4
[CTDB TOCID: KshXEWPposlxFMz5uGzHNqWn5KI-] disk not present in database
Submit result: The operation has timed out
==== Log checksum 6D469E1E2F8FEFBA4464787479AE35211BF86E7339778E9226BD4FAD2A55C10B ====
 
.cue
REM GENRE Jazz
REM DATE 2005
REM DISCID 840FBD09
REM COMMENT "ExactAudioCopy v1.0b4"
PERFORMER "Russ Lossing"
TITLE "Phrase 6"
FILE "01 - virgil.wav" WAVE
TRACK 01 AUDIO
TITLE "virgil"
PERFORMER "Russ Lossing"
INDEX 01 00:00:00
TRACK 02 AUDIO
TITLE "down by the glenside (peadar kearney)"
PERFORMER "Russ Lossing"
INDEX 00 08:13:10
FILE "02 - down by the glenside (peadar kearney).wav" WAVE
INDEX 01 00:00:00
TRACK 03 AUDIO
TITLE "koan"
PERFORMER "Russ Lossing"
INDEX 00 05:42:13
FILE "03 - koan.wav" WAVE
INDEX 01 00:00:00
TRACK 04 AUDIO
TITLE "phrase 6"
PERFORMER "Russ Lossing"
INDEX 00 06:39:34
FILE "04 - phrase 6.wav" WAVE
INDEX 01 00:00:00
TRACK 05 AUDIO
TITLE "spider's web"
PERFORMER "Russ Lossing"
INDEX 00 07:45:26
FILE "05 - spider's web.wav" WAVE
INDEX 01 00:00:00
TRACK 06 AUDIO
TITLE "silent knowledge"
PERFORMER "Russ Lossing"
INDEX 00 05:13:49
FILE "06 - silent knowledge.wav" WAVE
INDEX 01 00:00:00
TRACK 07 AUDIO
TITLE "zero uno (lossing/herbert/williams)"
PERFORMER "Russ Lossing"
INDEX 00 08:41:66
FILE "07 - zero uno (lossing,herbert,williams).wav" WAVE
INDEX 01 00:00:00
TRACK 08 AUDIO
TITLE "canto"
PERFORMER "Russ Lossing"
INDEX 00 08:43:44
FILE "08 - canto.wav" WAVE
INDEX 01 00:00:00
TRACK 09 AUDIO
TITLE "dexterity (charlie parker)"
PERFORMER "Russ Lossing"
INDEX 00 11:36:29
FILE "09 - dexterity (charlie parker).wav" WAVE
INDEX 01 00:00:00
http://www.discogs.com/Russ-Lossing-Phrase-6/release/5939533
другие релизы
По всем вопросам пишите личное сообщение пользователю M0p94ok.
17:14
159
Нет комментариев. Ваш будет первым!