Вы используете незарегистрированную версию компонента "Вкладки"!

Поиск

(free jazz, avant-garde) [cd] Pandelis Karayorgis Trio - Cocoon 2013, FLAC (tracks+.cue), lossless

(free jazz, avant-garde) [cd] Pandelis Karayorgis Trio - Cocoon 2013, FLAC (tracks+.cue), lossless
Треклист:
(free jazz, avant-garde) [cd] Pandelis Karayorgis Trio - Cocoon 2013, FLAC (tracks+.cue), lossless


Pandelis Karayorgis Trio - Cocoon 2013

Жанр: free jazz, avant-garde
Год выпуска: 2013
Издатель (лейбл): Driff Records / 1302
Формат: FLAC (tracks+.cue)
Битрейт аудио: lossless
Продолжительность 1`00`38
Источник: what.cd, 6060842
Pandelis Karayorgis, piano
Jef Charland, bass
Luther Gray, drums
Recorded at Fraser Performance Studio, WGBH Boston on June 20, 2012

tracks

1. Cocoon 05:36
2. Downed 06:47
3. Idiosynchronicity 04:35
4. You Took My Coffee And Left 05:12
5. Sideways Glance 05:45
6. Settling 09:36
7 .Red 05:54
8. Hopscotch 04:03
9. Jabberwocky 06:46
10. Incandescent 06:18


 
.log
X Lossless Decoder version 20140504 (147.0)
XLD extraction logfile from 2014-10-09 05:36:48 +0400
Pandelis Karayorgis Trio / Cocoon
Used drive : HL-DT-ST DVDRW GX30N (revision RP09)
Media type : Pressed CD
Ripper mode : XLD Secure Ripper
Disable audio cache : OK for the drive with a cache less than 1375KiB
Make use of C2 pointers : NO
Read offset correction : 6
Max retry count : 10000
Gap status : Analyzed, Appended (except HTOA)
TOC of the extracted CD
Track | Start | Length | Start sector | End sector
---------------------------------------------------------
1 | 00:00:00 | 05:36:71 | 0 | 25270
2 | 05:36:71 | 06:47:51 | 25271 | 55846
3 | 12:24:47 | 04:35:20 | 55847 | 76491
4 | 16:59:67 | 05:12:17 | 76492 | 99908
5 | 22:12:09 | 05:45:72 | 99909 | 125855
6 | 27:58:06 | 09:36:65 | 125856 | 169120
7 | 37:34:71 | 05:54:34 | 169121 | 195704
8 | 43:29:30 | 04:03:67 | 195705 | 213996
9 | 47:33:22 | 06:46:11 | 213997 | 244457
10 | 54:19:33 | 06:18:19 | 244458 | 272826
AccurateRip Summary
Disc not found in AccurateRip DB.
All Tracks
Album gain : -1.34 dB
Peak : 0.999969
Statistics
Read error : 0
Jitter error (maybe fixed) : 0
Retry sector count : 0
Damaged sector count : 0
Track 01
Filename : /Users/Shared/Grabbed/Pandelis Karayorgis Trio - 2013 - Cocoon [MP3 320]/01 - Cocoon.mp3
/Users/Shared/Grabbed/Pandelis Karayorgis Trio - 2013 - Cocoon [MP3 V0]/01 - Cocoon.mp3
/Users/Shared/Grabbed/Pandelis Karayorgis Trio - 2013 - Cocoon [FLAC]/01 - Cocoon.flac
Pre-gap length : 00:02:00
Track gain : 2.14 dB
Peak : 0.999969
CRC32 hash (test run) : F7252856
CRC32 hash : F7252856
CRC32 hash (skip zero) : B635425C
AccurateRip v1 signature : 4D4FB187
AccurateRip v2 signature : 71D2F121
->Track not present in AccurateRip database.
Statistics
Read error : 0
Jitter error (maybe fixed) : 0
Retry sector count : 0
Damaged sector count : 0
Track 02
Filename : /Users/Shared/Grabbed/Pandelis Karayorgis Trio - 2013 - Cocoon [MP3 320]/02 - Downed.mp3
/Users/Shared/Grabbed/Pandelis Karayorgis Trio - 2013 - Cocoon [MP3 V0]/02 - Downed.mp3
/Users/Shared/Grabbed/Pandelis Karayorgis Trio - 2013 - Cocoon [FLAC]/02 - Downed.flac
Track gain : -2.24 dB
Peak : 0.891266
CRC32 hash (test run) : EA2DB7DF
CRC32 hash : EA2DB7DF
CRC32 hash (skip zero) : C754F30F
AccurateRip v1 signature : 9A77780F
AccurateRip v2 signature : CAEBFB3A
->Track not present in AccurateRip database.
Statistics
Read error : 0
Jitter error (maybe fixed) : 0
Retry sector count : 0
Damaged sector count : 0
Track 03
Filename : /Users/Shared/Grabbed/Pandelis Karayorgis Trio - 2013 - Cocoon [MP3 320]/03 - Idiosynchronicity.mp3
/Users/Shared/Grabbed/Pandelis Karayorgis Trio - 2013 - Cocoon [MP3 V0]/03 - Idiosynchronicity.mp3
/Users/Shared/Grabbed/Pandelis Karayorgis Trio - 2013 - Cocoon [FLAC]/03 - Idiosynchronicity.flac
Track gain : -0.76 dB
Peak : 0.972260
CRC32 hash (test run) : 16ED959C
CRC32 hash : 16ED959C
CRC32 hash (skip zero) : A13BC51D
AccurateRip v1 signature : 736FAB6E
AccurateRip v2 signature : 22EF78C3
->Track not present in AccurateRip database.
Statistics
Read error : 0
Jitter error (maybe fixed) : 0
Retry sector count : 0
Damaged sector count : 0
Track 04
Filename : /Users/Shared/Grabbed/Pandelis Karayorgis Trio - 2013 - Cocoon [MP3 320]/04 - You Took My Coffee And Left.mp3
/Users/Shared/Grabbed/Pandelis Karayorgis Trio - 2013 - Cocoon [MP3 V0]/04 - You Took My Coffee And Left.mp3
/Users/Shared/Grabbed/Pandelis Karayorgis Trio - 2013 - Cocoon [FLAC]/04 - You Took My Coffee And Left.flac
Track gain : 1.04 dB
Peak : 0.967743
CRC32 hash (test run) : 5F6A1CC4
CRC32 hash : 5F6A1CC4
CRC32 hash (skip zero) : 2775F2E4
AccurateRip v1 signature : 98A40D1E
AccurateRip v2 signature : 7931712A
->Track not present in AccurateRip database.
Statistics
Read error : 0
Jitter error (maybe fixed) : 0
Retry sector count : 0
Damaged sector count : 0
Track 05
Filename : /Users/Shared/Grabbed/Pandelis Karayorgis Trio - 2013 - Cocoon [MP3 320]/05 - Sideways Glance.mp3
/Users/Shared/Grabbed/Pandelis Karayorgis Trio - 2013 - Cocoon [MP3 V0]/05 - Sideways Glance.mp3
/Users/Shared/Grabbed/Pandelis Karayorgis Trio - 2013 - Cocoon [FLAC]/05 - Sideways Glance.flac
Track gain : 1.36 dB
Peak : 0.968811
CRC32 hash (test run) : 1494DDA8
CRC32 hash : 1494DDA8
CRC32 hash (skip zero) : E36EB850
AccurateRip v1 signature : 3B7140D0
AccurateRip v2 signature : 93EE8049
->Track not present in AccurateRip database.
Statistics
Read error : 0
Jitter error (maybe fixed) : 0
Retry sector count : 0
Damaged sector count : 0
Track 06
Filename : /Users/Shared/Grabbed/Pandelis Karayorgis Trio - 2013 - Cocoon [MP3 320]/06 - Settling.mp3
/Users/Shared/Grabbed/Pandelis Karayorgis Trio - 2013 - Cocoon [MP3 V0]/06 - Settling.mp3
/Users/Shared/Grabbed/Pandelis Karayorgis Trio - 2013 - Cocoon [FLAC]/06 - Settling.flac
Track gain : -2.85 dB
Peak : 0.891266
CRC32 hash (test run) : A1609D13
CRC32 hash : A1609D13
CRC32 hash (skip zero) : E53CA7E6
AccurateRip v1 signature : 6481A52B
AccurateRip v2 signature : 970B6F58
->Track not present in AccurateRip database.
Statistics
Read error : 0
Jitter error (maybe fixed) : 0
Retry sector count : 0
Damaged sector count : 0
Track 07
Filename : /Users/Shared/Grabbed/Pandelis Karayorgis Trio - 2013 - Cocoon [MP3 320]/07 - Red.mp3
/Users/Shared/Grabbed/Pandelis Karayorgis Trio - 2013 - Cocoon [MP3 V0]/07 - Red.mp3
/Users/Shared/Grabbed/Pandelis Karayorgis Trio - 2013 - Cocoon [FLAC]/07 - Red.flac
Track gain : 1.43 dB
Peak : 0.999969
CRC32 hash (test run) : 8C0C7F85
CRC32 hash : 8C0C7F85
CRC32 hash (skip zero) : B86233A4
AccurateRip v1 signature : 35987EDB
AccurateRip v2 signature : 8B795CFF
->Track not present in AccurateRip database.
Statistics
Read error : 0
Jitter error (maybe fixed) : 0
Retry sector count : 0
Damaged sector count : 0
Track 08
Filename : /Users/Shared/Grabbed/Pandelis Karayorgis Trio - 2013 - Cocoon [MP3 320]/08 - Hopscotch
Hopscotch.mp3
/Users/Shared/Grabbed/Pandelis Karayorgis Trio - 2013 - Cocoon [MP3 V0]/08 - Hopscotch
Hopscotch.mp3
/Users/Shared/Grabbed/Pandelis Karayorgis Trio - 2013 - Cocoon [FLAC]/08 - Hopscotch
Hopscotch.flac
Track gain : -0.91 dB
Peak : 0.968750
CRC32 hash (test run) : 82F1ADDD
CRC32 hash : 82F1ADDD
CRC32 hash (skip zero) : DC9B829A
AccurateRip v1 signature : A491BEB9
AccurateRip v2 signature : 7A39FC43
->Track not present in AccurateRip database.
Statistics
Read error : 0
Jitter error (maybe fixed) : 0
Retry sector count : 0
Damaged sector count : 0
Track 09
Filename : /Users/Shared/Grabbed/Pandelis Karayorgis Trio - 2013 - Cocoon [MP3 320]/09 - Jabberwocky.mp3
/Users/Shared/Grabbed/Pandelis Karayorgis Trio - 2013 - Cocoon [MP3 V0]/09 - Jabberwocky.mp3
/Users/Shared/Grabbed/Pandelis Karayorgis Trio - 2013 - Cocoon [FLAC]/09 - Jabberwocky.flac
Track gain : -1.14 dB
Peak : 0.994385
CRC32 hash (test run) : B086F9F7
CRC32 hash : B086F9F7
CRC32 hash (skip zero) : 15EA1AA3
AccurateRip v1 signature : 7D518568
AccurateRip v2 signature : 07F0E382
->Track not present in AccurateRip database.
Statistics
Read error : 0
Jitter error (maybe fixed) : 0
Retry sector count : 0
Damaged sector count : 0
Track 10
Filename : /Users/Shared/Grabbed/Pandelis Karayorgis Trio - 2013 - Cocoon [MP3 320]/10 - Incandescent.mp3
/Users/Shared/Grabbed/Pandelis Karayorgis Trio - 2013 - Cocoon [MP3 V0]/10 - Incandescent.mp3
/Users/Shared/Grabbed/Pandelis Karayorgis Trio - 2013 - Cocoon [FLAC]/10 - Incandescent.flac
Track gain : -1.32 dB
Peak : 0.970337
CRC32 hash (test run) : 02B1ADDB
CRC32 hash : 02B1ADDB
CRC32 hash (skip zero) : 77768F74
AccurateRip v1 signature : 9CE93257
AccurateRip v2 signature : FFBE3496
->Track not present in AccurateRip database.
Statistics
Read error : 0
Jitter error (maybe fixed) : 0
Retry sector count : 0
Damaged sector count : 0
No errors occurred
End of status report
-----BEGIN XLD SIGNATURE-----
PowWYR_xQv18DAMEdTF.5eEPzQjLHc8e9AbrbMIfRTTvSIsDsyGGl7BCUAuwWFiMVSfRomoLtqkIISTwK8Bd8u4lVUQexEh5yOw.27u
-----END XLD SIGNATURE-----
 
.cue
TITLE "Cocoon"
PERFORMER "Pandelis Karayorgis Trio"
REM GENRE "Free Jazz"
REM DATE "2013"
REM DISCNUMBER 1
REM TOTALDISCS 1
REM DISCID 780E350A
REM REPLAYGAIN_ALBUM_GAIN -1.34 dB
REM REPLAYGAIN_ALBUM_PEAK 0.999969
FILE "01 - Cocoon.flac" WAVE
TRACK 01 AUDIO
TITLE "Cocoon"
PERFORMER "Pandelis Karayorgis Trio"
FLAGS DCP
REM REPLAYGAIN_TRACK_GAIN 2.14 dB
REM REPLAYGAIN_TRACK_PEAK 0.999969
INDEX 01 00:00:00
FILE "02 - Downed.flac" WAVE
TRACK 02 AUDIO
TITLE "Downed"
PERFORMER "Pandelis Karayorgis Trio"
FLAGS DCP
REM REPLAYGAIN_TRACK_GAIN -2.24 dB
REM REPLAYGAIN_TRACK_PEAK 0.891266
INDEX 01 00:00:00
FILE "03 - Idiosynchronicity.flac" WAVE
TRACK 03 AUDIO
TITLE "Idiosynchronicity"
PERFORMER "Pandelis Karayorgis Trio"
FLAGS DCP
REM REPLAYGAIN_TRACK_GAIN -0.76 dB
REM REPLAYGAIN_TRACK_PEAK 0.972260
INDEX 01 00:00:00
FILE "04 - You Took My Coffee And Left.flac" WAVE
TRACK 04 AUDIO
TITLE "You Took My Coffee And Left"
PERFORMER "Pandelis Karayorgis Trio"
FLAGS DCP
REM REPLAYGAIN_TRACK_GAIN 1.04 dB
REM REPLAYGAIN_TRACK_PEAK 0.967743
INDEX 01 00:00:00
FILE "05 - Sideways Glance.flac" WAVE
TRACK 05 AUDIO
TITLE "Sideways Glance"
PERFORMER "Pandelis Karayorgis Trio"
FLAGS DCP
REM REPLAYGAIN_TRACK_GAIN 1.36 dB
REM REPLAYGAIN_TRACK_PEAK 0.968811
INDEX 01 00:00:00
FILE "06 - Settling.flac" WAVE
TRACK 06 AUDIO
TITLE "Settling"
PERFORMER "Pandelis Karayorgis Trio"
FLAGS DCP
REM REPLAYGAIN_TRACK_GAIN -2.85 dB
REM REPLAYGAIN_TRACK_PEAK 0.891266
INDEX 01 00:00:00
FILE "07 - Red.flac" WAVE
TRACK 07 AUDIO
TITLE "Red"
PERFORMER "Pandelis Karayorgis Trio"
FLAGS DCP
REM REPLAYGAIN_TRACK_GAIN 1.43 dB
REM REPLAYGAIN_TRACK_PEAK 0.999969
INDEX 01 00:00:00
FILE "08 - Hopscotch.flac" WAVE
TRACK 08 AUDIO
TITLE "Hopscotch"
PERFORMER "Pandelis Karayorgis Trio"
FLAGS DCP
REM REPLAYGAIN_TRACK_GAIN -0.91 dB
REM REPLAYGAIN_TRACK_PEAK 0.968750
INDEX 01 00:00:00
FILE "09 - Jabberwocky.flac" WAVE
TRACK 09 AUDIO
TITLE "Jabberwocky"
PERFORMER "Pandelis Karayorgis Trio"
FLAGS DCP
REM REPLAYGAIN_TRACK_GAIN -1.14 dB
REM REPLAYGAIN_TRACK_PEAK 0.994385
INDEX 01 00:00:00
FILE "10 - Incandescent.flac" WAVE
TRACK 10 AUDIO
TITLE "Incandescent"
PERFORMER "Pandelis Karayorgis Trio"
FLAGS DCP
REM REPLAYGAIN_TRACK_GAIN -1.32 dB
REM REPLAYGAIN_TRACK_PEAK 0.970337
INDEX 01 00:00:00

другие релизы
По всем вопросам пишите личное сообщение пользователю M0p94ok.
05:24
143
Нет комментариев. Ваш будет первым!