Вы используете незарегистрированную версию компонента "Вкладки"!

Поиск

(free jazz, avant-garde, canterbury) Harry Miller - 1941-1983, The collection, FLAC (tracks+.cue), lossless

(free jazz, avant-garde, canterbury) Harry Miller - 1941-1983, The collection, FLAC (tracks+.cue), lossless
Треклист:
 
*
 
*

Harry Miller - 1941-1983, The collection
Жанр:free jazz, avant-garde, canterbury
Год выпуска: 1941-1983
Формат: FLAC (tracks+.cue)
Битрейт аудио: lossless
Продолжительность:
Источник: ed2k
 
Children at play / Family affair



Children at play
Harry Miller, double bass, flute, percussion effects
Recorded in 1974 in Hastings.

1. H&H (03.04)
2. Children at play (phase I & II) (08.22)
3. Homeboy (04.58)
4. Foregone conclusion (15.31)
5. Children at play (phase III) (04.23)



Family affair
Harry Miller's Isipingo: Harry Miller, bass; Marc Charig, trumpet; Mike Osborne, alto saxophone; Malcolm Griffiths, trombone; Keith Tippett, piano; Louis Moholo, drums.
Recorded at Battersea Arts Centre, London on 6 January 1977.
6. Family affair (10.32)
7. Touch hungry (10.48)
8. Jumping (15.32)
9. Eli's song (05.30)


 
.log
X Lossless Decoder version 20100503 (119.0)
XLD extraction logfile from 2010-05-27 23:50:16 +0300
Various Artists / Children at play / Family Affair
Used drive : MATSHITA DVD-R UJ-868 (revision KB19)
Use cdparanoia mode : YES (CDParanoia III 10.2 engine)
Disable audio cache : OK for the drive with cache less than 2750KB
Make use of C2 pointers : NO
Read offset correction : 102
Max retry count : 100
TOC of the extracted CD
Track | Start | Length | Start sector | End sector
---------------------------------------------------------
1 | 00:00:00 | 03:08:40 | 0 | 14139
2 | 03:08:40 | 08:29:00 | 14140 | 52314
3 | 11:37:40 | 05:03:01 | 52315 | 75040
4 | 16:40:41 | 15:38:70 | 75041 | 145460
5 | 32:19:36 | 04:31:51 | 145461 | 165836
6 | 36:51:12 | 10:29:54 | 165837 | 213065
7 | 47:20:66 | 10:43:37 | 213066 | 261327
8 | 58:04:28 | 15:25:43 | 261328 | 330745
9 | 73:29:71 | 05:26:29 | 330746 | 355224
Track 01
Filename : /Volumes/LaCie/Jerusalem/Harry Miller - 1999 - The Collection/HMCD1/01 - H And H.flac
Pre-gap length : 00:02:00
CRC32 hash (test run) : C9F4B87C
CRC32 hash : C9F4B87C
CRC32 hash (skip zero) : 63DB5B77
AccurateRip signature : 10413404
->Track not present in AccurateRip database.
Statistics
Read error : 0
Skipped (treated as error) : 0
Edge jitter error (maybe fixed) : 0
Atom jitter error (maybe fixed) : 0
Drift error (maybe fixed) : 0
Dropped bytes error (maybe fixed) : 0
Duplicated bytes error (maybe fixed) : 0
Inconsistency in error sectors : 0
Track 02
Filename : /Volumes/LaCie/Jerusalem/Harry Miller - 1999 - The Collection/HMCD1/02 - Children At Play.flac
Pre-gap length : 00:01:74
CRC32 hash (test run) : E5A5766B
CRC32 hash : E5A5766B
CRC32 hash (skip zero) : BA8213F5
AccurateRip signature : 22DEFA5F
->Track not present in AccurateRip database.
Statistics
Read error : 0
Skipped (treated as error) : 0
Edge jitter error (maybe fixed) : 0
Atom jitter error (maybe fixed) : 0
Drift error (maybe fixed) : 0
Dropped bytes error (maybe fixed) : 0
Duplicated bytes error (maybe fixed) : 0
Inconsistency in error sectors : 0
Track 03
Filename : /Volumes/LaCie/Jerusalem/Harry Miller - 1999 - The Collection/HMCD1/03 - Homeboy.flac
Pre-gap length : 00:03:00
CRC32 hash (test run) : 1F3AB98C
CRC32 hash : 1F3AB98C
CRC32 hash (skip zero) : EA73F0F8
AccurateRip signature : ADD76C88
->Track not present in AccurateRip database.
Statistics
Read error : 0
Skipped (treated as error) : 0
Edge jitter error (maybe fixed) : 0
Atom jitter error (maybe fixed) : 0
Drift error (maybe fixed) : 0
Dropped bytes error (maybe fixed) : 0
Duplicated bytes error (maybe fixed) : 0
Inconsistency in error sectors : 0
Track 04
Filename : /Volumes/LaCie/Jerusalem/Harry Miller - 1999 - The Collection/HMCD1/04 - Foregone Conclusion.flac
Pre-gap length : 00:02:74
CRC32 hash (test run) : 89F9C478
CRC32 hash : 89F9C478
CRC32 hash (skip zero) : C66EC700
AccurateRip signature : 17C220D1
->Track not present in AccurateRip database.
Statistics
Read error : 0
Skipped (treated as error) : 0
Edge jitter error (maybe fixed) : 0
Atom jitter error (maybe fixed) : 0
Drift error (maybe fixed) : 0
Dropped bytes error (maybe fixed) : 0
Duplicated bytes error (maybe fixed) : 0
Inconsistency in error sectors : 0
Track 05
Filename : /Volumes/LaCie/Jerusalem/Harry Miller - 1999 - The Collection/HMCD1/05 - Children At Play.flac
Pre-gap length : 00:02:73
CRC32 hash (test run) : D12D265D
CRC32 hash : D12D265D
CRC32 hash (skip zero) : 357D0A90
AccurateRip signature : BB37ADA4
->Track not present in AccurateRip database.
Statistics
Read error : 0
Skipped (treated as error) : 0
Edge jitter error (maybe fixed) : 0
Atom jitter error (maybe fixed) : 0
Drift error (maybe fixed) : 0
Dropped bytes error (maybe fixed) : 0
Duplicated bytes error (maybe fixed) : 0
Inconsistency in error sectors : 0
Track 06
Filename : /Volumes/LaCie/Jerusalem/Harry Miller - 1999 - The Collection/HMCD1/06 - Family Affair.flac
Pre-gap length : 00:07:73
CRC32 hash (test run) : 2BB0FFF6
CRC32 hash : 2BB0FFF6
CRC32 hash (skip zero) : D8DFAA41
AccurateRip signature : 0EB751DF
->Track not present in AccurateRip database.
Statistics
Read error : 0
Skipped (treated as error) : 0
Edge jitter error (maybe fixed) : 0
Atom jitter error (maybe fixed) : 0
Drift error (maybe fixed) : 0
Dropped bytes error (maybe fixed) : 0
Duplicated bytes error (maybe fixed) : 0
Inconsistency in error sectors : 0
Track 07
Filename : /Volumes/LaCie/Jerusalem/Harry Miller - 1999 - The Collection/HMCD1/07 - Touch Hungry.flac
CRC32 hash (test run) : 796673C4
CRC32 hash : 796673C4
CRC32 hash (skip zero) : B02CE0E2
AccurateRip signature : EA113FCC
->Track not present in AccurateRip database.
Statistics
Read error : 0
Skipped (treated as error) : 0
Edge jitter error (maybe fixed) : 0
Atom jitter error (maybe fixed) : 0
Drift error (maybe fixed) : 0
Dropped bytes error (maybe fixed) : 0
Duplicated bytes error (maybe fixed) : 0
Inconsistency in error sectors : 0
Track 08
Filename : /Volumes/LaCie/Jerusalem/Harry Miller - 1999 - The Collection/HMCD1/08 - Jumping.flac
CRC32 hash (test run) : 3DF9E6FE
CRC32 hash : 3DF9E6FE
CRC32 hash (skip zero) : 11AC7331
AccurateRip signature : FCD2C132
->Track not present in AccurateRip database.
Statistics
Read error : 0
Skipped (treated as error) : 0
Edge jitter error (maybe fixed) : 0
Atom jitter error (maybe fixed) : 0
Drift error (maybe fixed) : 0
Dropped bytes error (maybe fixed) : 0
Duplicated bytes error (maybe fixed) : 0
Inconsistency in error sectors : 0
Track 09
Filename : /Volumes/LaCie/Jerusalem/Harry Miller - 1999 - The Collection/HMCD1/09 - Eli's Song.flac
CRC32 hash (test run) : 6314247F
CRC32 hash : 6314247F
CRC32 hash (skip zero) : 1F8F75D5
AccurateRip signature : EBD88BA6
->Track not present in AccurateRip database.
Statistics
Read error : 0
Skipped (treated as error) : 0
Edge jitter error (maybe fixed) : 0
Atom jitter error (maybe fixed) : 0
Drift error (maybe fixed) : 0
Dropped bytes error (maybe fixed) : 0
Duplicated bytes error (maybe fixed) : 0
Inconsistency in error sectors : 0
No errors occurred
End of status report
 
.cue
TITLE "Children at play / Family Affair"
REM GENRE "Jazz"
REM DATE 1974
FILE "01 - H And H.wav" WAVE
TRACK 01 AUDIO
TITLE "H And H"
PERFORMER "Harry Miller"
ISRC GBCZP9900200
INDEX 01 00:00:00
TRACK 02 AUDIO
TITLE "Children At Play"
PERFORMER "Harry Miller"
ISRC GBCZP9900201
INDEX 00 03:06:41
FILE "02 - Children At Play.wav" WAVE
INDEX 01 00:00:00
TRACK 03 AUDIO
TITLE "Homeboy"
PERFORMER "Harry Miller"
ISRC GBCZP9900202
INDEX 00 08:26:00
FILE "03 - Homeboy.wav" WAVE
INDEX 01 00:00:00
TRACK 04 AUDIO
TITLE "Foregone Conclusion"
PERFORMER "Harry Miller"
ISRC GBCZP9900203
INDEX 00 05:00:02
FILE "04 - Foregone Conclusion.wav" WAVE
INDEX 01 00:00:00
TRACK 05 AUDIO
TITLE "Children At Play"
PERFORMER "Harry Miller"
ISRC GBCZP9900205
INDEX 00 15:35:72
FILE "05 - Children At Play.wav" WAVE
INDEX 01 00:00:00
TRACK 06 AUDIO
TITLE "Family Affair"
PERFORMER "Harry Miller's Isipingo"
ISRC GBCZP9900205
INDEX 00 04:23:53
FILE "06 - Family Affair.wav" WAVE
INDEX 01 00:00:00
FILE "07 - Touch Hungry.wav" WAVE
TRACK 07 AUDIO
TITLE "Touch Hungry"
PERFORMER "Harry Miller's Isipingo"
ISRC GBCZP9900206
INDEX 01 00:00:00
FILE "08 - Jumping.wav" WAVE
TRACK 08 AUDIO
TITLE "Jumping"
PERFORMER "Harry Miller's Isipingo"
ISRC GBCZP9900207
INDEX 01 00:00:00
FILE "09 - Eli's Song.wav" WAVE
TRACK 09 AUDIO
TITLE "Eli's Song"
PERFORMER "Harry Miller's Isipingo"
ISRC GBCZP9900208
INDEX 01 00:00:00
 
Bracknell breakdown / In conference



Bracknell breakdown
Harry Miller, double bass; Radu Malfatti, trombone
Recorded on 29 July 1977, at South Hill Park, Bracknell.

1. The audient stood on its foot (21.45)
2. Friendly duck (16.20)



In conference
Harry Miller Sextet: Harry Miller, bass; Willem Breuker, soprano and tenor saxophones, bass clarinet; Trevor Watts, alto and soprano saxophones; Julie Tippetts, voice; Keith Tippett, piano; Louis Moholo, drums.
Recorded at Redan Recorders, London on 27 January 1978.

3. Traumatic experience (12.55)
4. Orange grove (07.50)
5. Dancing Damon (11.10)
6. New baby (06.19)
7. Traumatic experience closed (01.24)


 
.log
X Lossless Decoder version 20100503 (119.0)
XLD extraction logfile from 2010-05-27 22:59:26 +0300
Various Artists / Bracknell Breakdown / In Conference
Used drive : MATSHITA DVD-R UJ-868 (revision KB19)
Use cdparanoia mode : YES (CDParanoia III 10.2 engine)
Disable audio cache : OK for the drive with cache less than 2750KB
Make use of C2 pointers : NO
Read offset correction : 102
Max retry count : 100
TOC of the extracted CD
Track | Start | Length | Start sector | End sector
---------------------------------------------------------
1 | 00:00:00 | 21:52:50 | 0 | 98449
2 | 21:52:50 | 16:29:10 | 98450 | 172634
3 | 38:21:60 | 13:06:00 | 172635 | 231584
4 | 51:27:60 | 08:02:03 | 231585 | 267737
5 | 59:29:63 | 11:15:52 | 267738 | 318414
6 | 70:45:40 | 06:23:57 | 318415 | 347196
7 | 77:09:22 | 01:21:54 | 347197 | 353325
Track 01
Filename : /Volumes/LaCie/Jerusalem/Harry Miller - 1999 - The Collection/HMCD2/01 - The Audient Stood On Its Foot.flac
Pre-gap length : 00:02:00
CRC32 hash (test run) : 53E5B7FA
CRC32 hash : 53E5B7FA
CRC32 hash (skip zero) : 72B82E2F
AccurateRip signature : 7F2781E1
->Track not present in AccurateRip database.
Statistics
Read error : 0
Skipped (treated as error) : 0
Edge jitter error (maybe fixed) : 0
Atom jitter error (maybe fixed) : 0
Drift error (maybe fixed) : 0
Dropped bytes error (maybe fixed) : 0
Duplicated bytes error (maybe fixed) : 0
Inconsistency in error sectors : 0
Track 02
Filename : /Volumes/LaCie/Jerusalem/Harry Miller - 1999 - The Collection/HMCD2/02 - Friendly Duck.flac
Pre-gap length : 00:02:00
CRC32 hash (test run) : 62C0677E
CRC32 hash : 62C0677E
CRC32 hash (skip zero) : 568AF798
AccurateRip signature : C743BD14
->Track not present in AccurateRip database.
Statistics
Read error : 0
Skipped (treated as error) : 0
Edge jitter error (maybe fixed) : 0
Atom jitter error (maybe fixed) : 0
Drift error (maybe fixed) : 0
Dropped bytes error (maybe fixed) : 0
Duplicated bytes error (maybe fixed) : 0
Inconsistency in error sectors : 0
Track 03
Filename : /Volumes/LaCie/Jerusalem/Harry Miller - 1999 - The Collection/HMCD2/03 - Traumatic Experience.flac
Pre-gap length : 00:08:00
CRC32 hash (test run) : 7FEEAC83
CRC32 hash : 7FEEAC83
CRC32 hash (skip zero) : 48FDB7F3
AccurateRip signature : E0D80CC5
->Track not present in AccurateRip database.
Statistics
Read error : 0
Skipped (treated as error) : 0
Edge jitter error (maybe fixed) : 0
Atom jitter error (maybe fixed) : 0
Drift error (maybe fixed) : 0
Dropped bytes error (maybe fixed) : 0
Duplicated bytes error (maybe fixed) : 0
Inconsistency in error sectors : 0
Track 04
Filename : /Volumes/LaCie/Jerusalem/Harry Miller - 1999 - The Collection/HMCD2/04 - Orange Grove.flac
Pre-gap length : 00:03:00
CRC32 hash (test run) : 1026942C
CRC32 hash : 1026942C
CRC32 hash (skip zero) : F413D869
AccurateRip signature : 502C9A6D
->Track not present in AccurateRip database.
Statistics
Read error : 0
Skipped (treated as error) : 0
Edge jitter error (maybe fixed) : 0
Atom jitter error (maybe fixed) : 0
Drift error (maybe fixed) : 0
Dropped bytes error (maybe fixed) : 0
Duplicated bytes error (maybe fixed) : 0
Inconsistency in error sectors : 0
Track 05
Filename : /Volumes/LaCie/Jerusalem/Harry Miller - 1999 - The Collection/HMCD2/05 - Dancing Damon.flac
Pre-gap length : 00:02:71
CRC32 hash (test run) : 681D6542
CRC32 hash : 681D6542
CRC32 hash (skip zero) : 32196307
AccurateRip signature : C306E44F
->Track not present in AccurateRip database.
Statistics
Read error : 0
Skipped (treated as error) : 0
Edge jitter error (maybe fixed) : 0
Atom jitter error (maybe fixed) : 0
Drift error (maybe fixed) : 0
Dropped bytes error (maybe fixed) : 0
Duplicated bytes error (maybe fixed) : 0
Inconsistency in error sectors : 0
Track 06
Filename : /Volumes/LaCie/Jerusalem/Harry Miller - 1999 - The Collection/HMCD2/06 - New Baby.flac
CRC32 hash (test run) : 125980DB
CRC32 hash : 125980DB
CRC32 hash (skip zero) : 1B54A677
AccurateRip signature : D3111845
->Track not present in AccurateRip database.
Statistics
Read error : 0
Skipped (treated as error) : 0
Edge jitter error (maybe fixed) : 0
Atom jitter error (maybe fixed) : 0
Drift error (maybe fixed) : 0
Dropped bytes error (maybe fixed) : 0
Duplicated bytes error (maybe fixed) : 0
Inconsistency in error sectors : 0
Track 07
Filename : /Volumes/LaCie/Jerusalem/Harry Miller - 1999 - The Collection/HMCD2/07 - Traumatic Experience Closed.flac
Pre-gap length : 00:01:73
CRC32 hash (test run) : B02464A6
CRC32 hash : B02464A6
CRC32 hash (skip zero) : 193319F9
AccurateRip signature : 0BA53FE3
->Track not present in AccurateRip database.
Statistics
Read error : 0
Skipped (treated as error) : 0
Edge jitter error (maybe fixed) : 0
Atom jitter error (maybe fixed) : 0
Drift error (maybe fixed) : 0
Dropped bytes error (maybe fixed) : 0
Duplicated bytes error (maybe fixed) : 0
Inconsistency in error sectors : 0
No errors occurred
End of status report
 
.cue
TITLE "Bracknell Breakdown / In Conference"
REM GENRE "Jazz"
FILE "01 - The Audient Stood On Its Foot.wav" WAVE
TRACK 01 AUDIO
TITLE "The Audient Stood On Its Foot"
PERFORMER "Radu Malfatti & Harry Miller"
SONGWRITER "Radu Malfatti & Harry Miller"
ISRC GBCZP9900320
INDEX 01 00:00:00
TRACK 02 AUDIO
TITLE "Friendly Duck"
PERFORMER "Radu Malfatti & Harry Miller"
SONGWRITER "Radu Malfatti & Harry Miller"
ISRC GBCZP9900321
INDEX 00 21:50:50
FILE "02 - Friendly Duck.wav" WAVE
INDEX 01 00:00:00
TRACK 03 AUDIO
TITLE "Traumatic Experience"
PERFORMER "Harry Miller"
SONGWRITER "Harry Miller"
ISRC GBCZP9900322
INDEX 00 16:21:10
FILE "03 - Traumatic Experience.wav" WAVE
INDEX 01 00:00:00
TRACK 04 AUDIO
TITLE "Orange Grove"
PERFORMER "Harry Miller"
SONGWRITER "Harry Miller"
ISRC GBCZP9900323
INDEX 00 13:03:00
FILE "04 - Orange Grove.wav" WAVE
INDEX 01 00:00:00
TRACK 05 AUDIO
TITLE "Dancing Damon"
PERFORMER "Harry Miller"
SONGWRITER "Harry Miller"
ISRC GBCZP9900324
INDEX 00 07:59:07
FILE "05 - Dancing Damon.wav" WAVE
INDEX 01 00:00:00
FILE "06 - New Baby.wav" WAVE
TRACK 06 AUDIO
TITLE "New Baby"
PERFORMER "Harry Miller"
SONGWRITER "Harry Miller"
ISRC GBCZP9900325
INDEX 01 00:00:00
TRACK 07 AUDIO
TITLE "Traumatic Experience Closed"
PERFORMER "Harry Miller"
SONGWRITER "Harry Miller"
ISRC GBCZP9900326
INDEX 00 06:21:59
FILE "07 - Traumatic Experience Closed.wav" WAVE
INDEX 01 00:00:00
 
Down South



Down South
Harry Miller Quintet: Harry Miller, bass; Marc Charig, cornet, alphorn; Wolter Wierbos, trombone; Sean Bergin, tenor, alto and soprano saxophones; Han Bennink, drums.
Recorded at Vara Studio 2, Holland on 3 March 1983.

1. Down South (06.43)
2. Ikaya (04.05)
3. Deep down feeling (05.53)
4. Schooldays (06.02)
5. Opportunities (08.01)
6. Flame tree (06.34)
7. Mofolo (07.16)


 
.log
X Lossless Decoder version 20100503 (119.0)
XLD extraction logfile from 2010-05-27 23:28:21 +0300
Harry Miller Quintet / Down South
Used drive : MATSHITA DVD-R UJ-868 (revision KB19)
Use cdparanoia mode : YES (CDParanoia III 10.2 engine)
Disable audio cache : OK for the drive with cache less than 2750KB
Make use of C2 pointers : NO
Read offset correction : 102
Max retry count : 100
TOC of the extracted CD
Track | Start | Length | Start sector | End sector
---------------------------------------------------------
1 | 00:00:00 | 06:48:63 | 0 | 30662
2 | 06:48:63 | 04:10:21 | 30663 | 49433
3 | 10:59:09 | 05:56:66 | 49434 | 76199
4 | 16:56:00 | 06:08:09 | 76200 | 103808
5 | 23:04:09 | 08:07:43 | 103809 | 140376
6 | 31:11:52 | 06:39:19 | 140377 | 170320
7 | 37:50:71 | 07:18:28 | 170321 | 203198
Track 01
Filename : /Volumes/LaCie/Jerusalem/Harry Miller - 1999 - The Collection/HMCD3/01 - Down South.flac
Pre-gap length : 00:02:00
CRC32 hash (test run) : FE47FDD2
CRC32 hash : FE47FDD2
CRC32 hash (skip zero) : D64F097D
AccurateRip signature : A0D97065
->Track not present in AccurateRip database.
Statistics
Read error : 0
Skipped (treated as error) : 0
Edge jitter error (maybe fixed) : 0
Atom jitter error (maybe fixed) : 0
Drift error (maybe fixed) : 0
Dropped bytes error (maybe fixed) : 0
Duplicated bytes error (maybe fixed) : 0
Inconsistency in error sectors : 0
Track 02
Filename : /Volumes/LaCie/Jerusalem/Harry Miller - 1999 - The Collection/HMCD3/02 - Ikaya.flac
Pre-gap length : 00:03:00
CRC32 hash (test run) : 1A64D0AF
CRC32 hash : 1A64D0AF
CRC32 hash (skip zero) : 287734C5
AccurateRip signature : B4EBE05B
->Track not present in AccurateRip database.
Statistics
Read error : 0
Skipped (treated as error) : 0
Edge jitter error (maybe fixed) : 0
Atom jitter error (maybe fixed) : 0
Drift error (maybe fixed) : 0
Dropped bytes error (maybe fixed) : 0
Duplicated bytes error (maybe fixed) : 0
Inconsistency in error sectors : 0
Track 03
Filename : /Volumes/LaCie/Jerusalem/Harry Miller - 1999 - The Collection/HMCD3/03 - Deep Down Feeling.flac
Pre-gap length : 00:03:00
CRC32 hash (test run) : C8AF94A0
CRC32 hash : C8AF94A0
CRC32 hash (skip zero) : 3D53D621
AccurateRip signature : 1C6271BD
->Track not present in AccurateRip database.
Statistics
Read error : 0
Skipped (treated as error) : 0
Edge jitter error (maybe fixed) : 0
Atom jitter error (maybe fixed) : 0
Drift error (maybe fixed) : 0
Dropped bytes error (maybe fixed) : 0
Duplicated bytes error (maybe fixed) : 0
Inconsistency in error sectors : 0
Track 04
Filename : /Volumes/LaCie/Jerusalem/Harry Miller - 1999 - The Collection/HMCD3/04 - Schooldays.flac
Pre-gap length : 00:02:00
CRC32 hash (test run) : B6D216A5
CRC32 hash : B6D216A5
CRC32 hash (skip zero) : 8916EAB1
AccurateRip signature : 9E47103B
->Track not present in AccurateRip database.
Statistics
Read error : 0
Skipped (treated as error) : 0
Edge jitter error (maybe fixed) : 0
Atom jitter error (maybe fixed) : 0
Drift error (maybe fixed) : 0
Dropped bytes error (maybe fixed) : 0
Duplicated bytes error (maybe fixed) : 0
Inconsistency in error sectors : 0
Track 05
Filename : /Volumes/LaCie/Jerusalem/Harry Miller - 1999 - The Collection/HMCD3/05 - Opportunities.flac
Pre-gap length : 00:03:00
CRC32 hash (test run) : 4912B937
CRC32 hash : 4912B937
CRC32 hash (skip zero) : 7AB3253E
AccurateRip signature : 8313AED0
->Track not present in AccurateRip database.
Statistics
Read error : 0
Skipped (treated as error) : 0
Edge jitter error (maybe fixed) : 0
Atom jitter error (maybe fixed) : 0
Drift error (maybe fixed) : 0
Dropped bytes error (maybe fixed) : 0
Duplicated bytes error (maybe fixed) : 0
Inconsistency in error sectors : 0
Track 06
Filename : /Volumes/LaCie/Jerusalem/Harry Miller - 1999 - The Collection/HMCD3/06 - Flame Tree.flac
Pre-gap length : 00:03:00
CRC32 hash (test run) : C5E7E47D
CRC32 hash : C5E7E47D
CRC32 hash (skip zero) : 084A4343
AccurateRip signature : C859B97A
->Track not present in AccurateRip database.
Statistics
Read error : 0
Skipped (treated as error) : 0
Edge jitter error (maybe fixed) : 0
Atom jitter error (maybe fixed) : 0
Drift error (maybe fixed) : 0
Dropped bytes error (maybe fixed) : 0
Duplicated bytes error (maybe fixed) : 0
Inconsistency in error sectors : 0
Track 07
Filename : /Volumes/LaCie/Jerusalem/Harry Miller - 1999 - The Collection/HMCD3/07 - Mofolo.flac
Pre-gap length : 00:03:00
CRC32 hash (test run) : 79D6B775
CRC32 hash : 79D6B775
CRC32 hash (skip zero) : 6D3DEDDA
AccurateRip signature : 60194AC9
->Track not present in AccurateRip database.
Statistics
Read error : 0
Skipped (treated as error) : 0
Edge jitter error (maybe fixed) : 0
Atom jitter error (maybe fixed) : 0
Drift error (maybe fixed) : 0
Dropped bytes error (maybe fixed) : 0
Duplicated bytes error (maybe fixed) : 0
Inconsistency in error sectors : 0
No errors occurred
End of status report
 
.cue
TITLE "Down South"
PERFORMER "Harry Miller Quintet"
REM GENRE "Jazz"
REM DATE 1984
FILE "01 - Down South.wav" WAVE
TRACK 01 AUDIO
TITLE "Down South"
ISRC GBCZP9904213
INDEX 01 00:00:00
TRACK 02 AUDIO
TITLE "Ikaya"
ISRC GBCZP9904214
INDEX 00 06:45:63
FILE "02 - Ikaya.wav" WAVE
INDEX 01 00:00:00
TRACK 03 AUDIO
TITLE "Deep Down Feeling"
ISRC GBCZP9904215
INDEX 00 04:07:21
FILE "03 - Deep Down Feeling.wav" WAVE
INDEX 01 00:00:00
TRACK 04 AUDIO
TITLE "Schooldays"
ISRC GBCZP9904216
INDEX 00 05:54:66
FILE "04 - Schooldays.wav" WAVE
INDEX 01 00:00:00
TRACK 05 AUDIO
TITLE "Opportunities"
ISRC GBCZP9904217
INDEX 00 06:05:09
FILE "05 - Opportunities.wav" WAVE
INDEX 01 00:00:00
TRACK 06 AUDIO
TITLE "Flame Tree"
ISRC GBCZP9904218
INDEX 00 08:04:43
FILE "06 - Flame Tree.wav" WAVE
INDEX 01 00:00:00
TRACK 07 AUDIO
TITLE "Mofolo"
ISRC GBCZP9904219
INDEX 00 06:36:19
FILE "07 - Mofolo.wav" WAVE
INDEX 01 00:00:00
Any questions -> support@pro-jazz.com. По всем вопросам пишите -> support@pro-jazz.com
02:33
193
Нет комментариев. Ваш будет первым!