Вы используете незарегистрированную версию компонента "Вкладки"!

Поиск

(Free Jazz, Avant-Garde) Anthony Braxton (w. Dave Holland, Barry Altschul etc) - Town Hall (Trio & Quintet), 1972 {Hat Hut Rec. hat ART CD 6119, Switzerland} - 1992, APE (image+.cue) lossless

Треклист:
Anthony Braxton - Town Hall (Trio & Quintet), 1972.
Жанр: Free Jazz, Avant-Garde
Страна-производитель диска: Switzerland
Год издания диска: 1992
Издатель (лейбл): Hat Hut Records
Номер по каталогу: hat ART CD 6119
Аудио кодек: APE (*.ape)
Тип рипа: image+.cue
Битрейт аудио: lossless
Продолжительность: 01:07:40
Источник (релизер): basa005
Наличие сканов в содержимом раздачи: да
Треклист:
1. Composition 6 N (dedicated to Jerome Cooper) / Composition 6 (O) (dedicated to Frederic Rzewski) - 18:18
2. All The Things You Are (by Jerome Kern) - 14:12
3. Composition 6 P I - 13:46
4. Composition 6 PII (dedicated to Jeanne Lee) - 21:25
Concert organized by Anthony Braxton & George Conley; Recorded at Town Hall, New York, N.Y., on May 22, 1972 by John Sadler.
Personnel:
1 + 2 = Trio
Anthony Braxton - alto sax
Dave Holland - bass
Philip Wilson - drums
3 + 4 = Quintet
Anthony Braxton - alto sax, soprano sax, flute, contrabass clarinet, soprano & b flat clarinet, percussion
John Stubblefield - tenor sax, flute, bass clarinet, gong, percussion
Jeanne Lee - voice
Dave Holland - double bass
Barry Altschul - percussion, marimba
 
Лог создания рипа (EAC Log)
Exact Audio Copy V1.0 beta 2 from 29. April 2011
EAC extraction logfile from 13. October 2011, 15:49
Anthony Braxton / Town Hall (Trio & Quintet) 1872
Used drive : TSSTcorpCDDVDW SE-S204N Adapter: 2 ID: 0
Read mode : Secure
Utilize accurate stream : Yes
Defeat audio cache : Yes
Make use of C2 pointers : No
Read offset correction : 6
Overread into Lead-In and Lead-Out : No
Fill up missing offset samples with silence : Yes
Delete leading and trailing silent blocks : No
Null samples used in CRC calculations : No
Used interface : Native Win32 interface for Win NT & 2000
Used output format : Internal WAV Routines
Sample format : 44.100 Hz; 16 Bit; Stereo
TOC of the extracted CD
Track | Start | Length | Start sector | End sector
---------------------------------------------------------
1 | 0:00.00 | 18:18.25 | 0 | 82374
2 | 18:18.25 | 14:12.00 | 82375 | 146274
3 | 32:30.25 | 13:45.37 | 146275 | 208186
4 | 46:15.62 | 21:25.13 | 208187 | 304574
Range status and errors
Selected range
Filename C:\avaxhome\Anthony Braxton - Town Hall (Trio & Quintet) 1872.wav
Peak level 92.2 %
Extraction speed 7.6 X
Range quality 99.9 %
Copy CRC D412B82B
Copy OK
No errors occurred
AccurateRip summary
Track 1 accurately ripped (confidence 4) [93DFCC43] (AR v1)
Track 2 accurately ripped (confidence 4) [A1BB2C9A] (AR v1)
Track 3 accurately ripped (confidence 4) [DBB92162] (AR v1)
Track 4 accurately ripped (confidence 4) [0299742A] (AR v1)
All tracks accurately ripped
End of status report
==== Log checksum 8A327943176382663C11A1ACBD2350AA6D57FE06C0140F1529159258804FD721 ====
 
Содержание индексной карты (.CUE)
REM GENRE Jazz
REM DISCID 2C0FDD04
REM COMMENT "ExactAudioCopy v1.0b2"
PERFORMER "Anthony Braxton"
TITLE "Town Hall (Trio & Quintet), 1972"
FILE "Anthony Braxton - Town Hall (Trio & Quintet), 1972.APE" WAVE
TRACK 01 AUDIO
TITLE "Composition 6 N & Composition 6 (O)"
PERFORMER "Anthony Braxton"
INDEX 01 00:00:00
TRACK 02 AUDIO
TITLE "All The Things You Are"
PERFORMER "Anthony Braxton"
INDEX 01 18:18:25
TRACK 03 AUDIO
TITLE "Composition 6 P I"
PERFORMER "Anthony Braxton"
INDEX 01 32:30:25
TRACK 04 AUDIO
TITLE "Composition 6 P II"
PERFORMER "Anthony Braxton"
INDEX 00 46:15:60
INDEX 01 46:15:62
 
Back
Any questions -> support@pro-jazz.com. По всем вопросам пишите -> support@pro-jazz.com
17:30
253
Нет комментариев. Ваш будет первым!