Вы используете незарегистрированную версию компонента "Вкладки"!

Поиск

(free jazz, avant-garde) Albert Ayler - Stockholm, Berlin 1966, FLAC (tracks+.cue), lossless

Треклист:

Albert Ayler - Stockholm, Berlin 1966
Жанр: free jazz, avant-garde
Год издания диска: 1966
Издатель (лейбл): hatOLOGY 717
Аудиокодек: FLAC (*.flac)
Тип рипа: tracks+.cue
Битрейт аудио: lossless
Продолжительность: 59`16
Источник (релизер): what.cd
Наличие сканов в содержимом раздачи: да
Albert Ayler (tenor saxophone); Donald Ayler (trumpet); Michel Samson (violin); William Folwell (double bass); Beaver Harris (drums)
Cuts 1-4: Stockholm, November 10, 1966
Cuts 5-8: Berlin, November 3, 1966
Треклист:
Truth Is Marching In 9:15
Omega (Is The Alpha) 10:36
Our Prayer - Bells 7:51
Infinite Spirit - Japan 3:53
Truth Is Marching In 7:25
Omega (Is The Alpha) 3:36
Our Prayer - Truth Is Marching In 5:06
Ghosts - Bells 11:29
 
Лог создания рипа
X Lossless Decoder version 20110924 (136.3)
XLD extraction logfile from 2011-12-03 17:41:59 +0000
Albert Ayler / Stockholm, Berlin 1966
Used drive : MATSHITA DVD-R UJ-8A8 (revision HA13)
Ripper mode : XLD Secure Ripper
Disable audio cache : OK for the drive with a cache less than 1375KiB
Make use of C2 pointers : NO
Read offset correction : 102
Max retry count : 100
Gap status : Analyzed, Appended (except HTOA)
TOC of the extracted CD
Track | Start | Length | Start sector | End sector
---------------------------------------------------------
1 | 00:00:00 | 09:15:33 | 0 | 41657
2 | 09:15:33 | 10:36:51 | 41658 | 89408
3 | 19:52:09 | 07:51:35 | 89409 | 124768
4 | 27:43:44 | 03:53:54 | 124769 | 142297
5 | 31:37:23 | 07:25:60 | 142298 | 175732
6 | 39:03:08 | 03:36:57 | 175733 | 191989
7 | 42:39:65 | 05:06:23 | 191990 | 214962
8 | 47:46:13 | 11:29:63 | 214963 | 266700
AccurateRip Summary
Disc not found in AccurateRip DB.
All Tracks
Album gain : -4.92 dB
Peak : 0.972321
Statistics
Read error : 0
Jitter error (maybe fixed) : 0
Retry sector count : 0
Damaged sector count : 0
Track 01
Filename : /Users/ianwolff/Downloads/torrent seeding/Albert Ayler - Stockholm, Berlin 1966 (2011) [FLAC]/01 Truth Is Marching In.flac
Pre-gap length : 00:02:00
Track gain : -5.88 dB
Peak : 0.917969
CRC32 hash (test run) : 2777D214
CRC32 hash : 2777D214
CRC32 hash (skip zero) : 3681A048
AccurateRip signature : F7B42B34
->Track not present in AccurateRip database.
Statistics
Read error : 0
Jitter error (maybe fixed) : 0
Retry sector count : 0
Damaged sector count : 0
Track 02
Filename : /Users/ianwolff/Downloads/torrent seeding/Albert Ayler - Stockholm, Berlin 1966 (2011) [FLAC]/02 Omega (Is The Alpha).flac
Track gain : -3.74 dB
Peak : 0.972321
CRC32 hash (test run) : 7B08555A
CRC32 hash : 7B08555A
CRC32 hash (skip zero) : 810AF437
AccurateRip signature : AFA158B0
->Track not present in AccurateRip database.
Statistics
Read error : 0
Jitter error (maybe fixed) : 0
Retry sector count : 0
Damaged sector count : 0
Track 03
Filename : /Users/ianwolff/Downloads/torrent seeding/Albert Ayler - Stockholm, Berlin 1966 (2011) [FLAC]/03 Our Prayer - Bells.flac
Track gain : -1.56 dB
Peak : 0.784973
CRC32 hash (test run) : B7F03086
CRC32 hash : B7F03086
CRC32 hash (skip zero) : D73E4995
AccurateRip signature : 99402F92
->Track not present in AccurateRip database.
Statistics
Read error : 0
Jitter error (maybe fixed) : 0
Retry sector count : 0
Damaged sector count : 0
Track 04
Filename : /Users/ianwolff/Downloads/torrent seeding/Albert Ayler - Stockholm, Berlin 1966 (2011) [FLAC]/04 Infinite Spirit - Japan.flac
Track gain : -2.76 dB
Peak : 0.819977
CRC32 hash (test run) : AC35605C
CRC32 hash : AC35605C
CRC32 hash (skip zero) : 715E0A52
AccurateRip signature : 66E8D727
->Track not present in AccurateRip database.
Statistics
Read error : 0
Jitter error (maybe fixed) : 0
Retry sector count : 0
Damaged sector count : 0
Track 05
Filename : /Users/ianwolff/Downloads/torrent seeding/Albert Ayler - Stockholm, Berlin 1966 (2011) [FLAC]/05 Truth Is Marching In.flac
Track gain : -5.27 dB
Peak : 0.880280
CRC32 hash (test run) : 88B7E48F
CRC32 hash : 88B7E48F
CRC32 hash (skip zero) : FB0AD7DA
AccurateRip signature : 3E8EB812
->Track not present in AccurateRip database.
Statistics
Read error : 0
Jitter error (maybe fixed) : 0
Retry sector count : 0
Damaged sector count : 0
Track 06
Filename : /Users/ianwolff/Downloads/torrent seeding/Albert Ayler - Stockholm, Berlin 1966 (2011) [FLAC]/06 Omega (Is The Alpha).flac
Track gain : -4.33 dB
Peak : 0.871246
CRC32 hash (test run) : 29805691
CRC32 hash : 29805691
CRC32 hash (skip zero) : 4A6E7F94
AccurateRip signature : 72C03AF0
->Track not present in AccurateRip database.
Statistics
Read error : 0
Jitter error (maybe fixed) : 0
Retry sector count : 0
Damaged sector count : 0
Track 07
Filename : /Users/ianwolff/Downloads/torrent seeding/Albert Ayler - Stockholm, Berlin 1966 (2011) [FLAC]/07 Our Prayer - Truth Is Marching In.flac
Track gain : -6.00 dB
Peak : 0.909851
CRC32 hash (test run) : B996D78F
CRC32 hash : B996D78F
CRC32 hash (skip zero) : C80F670F
AccurateRip signature : E9379BE2
->Track not present in AccurateRip database.
Statistics
Read error : 0
Jitter error (maybe fixed) : 0
Retry sector count : 0
Damaged sector count : 0
Track 08
Filename : /Users/ianwolff/Downloads/torrent seeding/Albert Ayler - Stockholm, Berlin 1966 (2011) [FLAC]/08 Ghosts - Bells.flac
Track gain : -5.26 dB
Peak : 0.888519
CRC32 hash (test run) : 8CF56D7F
CRC32 hash : 8CF56D7F
CRC32 hash (skip zero) : 38DFD6C9
AccurateRip signature : 1C687690
->Track not present in AccurateRip database.
Statistics
Read error : 0
Jitter error (maybe fixed) : 0
Retry sector count : 0
Damaged sector count : 0
No errors occurred
End of status report
 
Содержание индексной карты (.CUE)
TITLE "Stockholm, Berlin 1966"
PERFORMER "Albert Ayler"
REM GENRE "Jazz"
REM DATE "2011"
REM DISCNUMBER 1
REM TOTALDISCS 1
REM DISCID 830DE408
REM REPLAYGAIN_ALBUM_GAIN -4.92 dB
REM REPLAYGAIN_ALBUM_PEAK 0.972321
FILE "01 Truth Is Marching In.flac" WAVE
TRACK 01 AUDIO
TITLE "Truth Is Marching In"
ISRC CH1310400675
REM REPLAYGAIN_TRACK_GAIN -5.88 dB
REM REPLAYGAIN_TRACK_PEAK 0.917969
INDEX 01 00:00:00
FILE "02 Omega (Is The Alpha).flac" WAVE
TRACK 02 AUDIO
TITLE "Omega (Is The Alpha)"
ISRC CH1310400676
REM REPLAYGAIN_TRACK_GAIN -3.74 dB
REM REPLAYGAIN_TRACK_PEAK 0.972321
INDEX 01 00:00:00
FILE "03 Our Prayer - Bells.flac" WAVE
TRACK 03 AUDIO
TITLE "Our Prayer - Bells"
ISRC CH1310400677
REM REPLAYGAIN_TRACK_GAIN -1.56 dB
REM REPLAYGAIN_TRACK_PEAK 0.784973
INDEX 01 00:00:00
FILE "04 Infinite Spirit - Japan.flac" WAVE
TRACK 04 AUDIO
TITLE "Infinite Spirit - Japan"
ISRC CH1310400678
REM REPLAYGAIN_TRACK_GAIN -2.76 dB
REM REPLAYGAIN_TRACK_PEAK 0.819977
INDEX 01 00:00:00
FILE "05 Truth Is Marching In.flac" WAVE
TRACK 05 AUDIO
TITLE "Truth Is Marching In"
ISRC CH1310400679
REM REPLAYGAIN_TRACK_GAIN -5.27 dB
REM REPLAYGAIN_TRACK_PEAK 0.880280
INDEX 01 00:00:00
FILE "06 Omega (Is The Alpha).flac" WAVE
TRACK 06 AUDIO
TITLE "Omega (Is The Alpha)"
ISRC CH1310400680
REM REPLAYGAIN_TRACK_GAIN -4.33 dB
REM REPLAYGAIN_TRACK_PEAK 0.871246
INDEX 01 00:00:00
FILE "07 Our Prayer - Truth Is Marching In.flac" WAVE
TRACK 07 AUDIO
TITLE "Our Prayer - Truth Is Marching In"
ISRC CH1310400681
REM REPLAYGAIN_TRACK_GAIN -6.00 dB
REM REPLAYGAIN_TRACK_PEAK 0.909851
INDEX 01 00:00:00
FILE "08 Ghosts - Bells.flac" WAVE
TRACK 08 AUDIO
TITLE "Ghosts - Bells"
ISRC CH1310400682
REM REPLAYGAIN_TRACK_GAIN -5.26 dB
REM REPLAYGAIN_TRACK_PEAK 0.888519
INDEX 01 00:00:00

http://www.allaboutjazz.com/php/article.php?id=40833
другие релизы
Any questions -> support@pro-jazz.com. По всем вопросам пишите -> support@pro-jazz.com
21:10
273
Нет комментариев. Ваш будет первым!