Поиск

(Free-Jazz, Avant-Garde) AALY Trio & Ken Vandermark - I Wonder If I Was Screaming - 2000, APE (image + .cue), lossless

Треклист:
AALY Trio & Ken Vandermark - I Wonder If I Was Screaming
Страна: USA
Жанр: Free-Jazz, Avant-Garde
Год выпуска: 2000
Формат: APE (image + .cue)
Битрейт аудио: lossless
Трэклист:
1. 3 on 2
2. There Is a Balm in Gilead
3. In Between Films (For Bruce Conner)
4. Left to Right (For Henry Grimes)
5. Sand (For Lucky Thompson)
6. Würzburg
 
Отчет ЕАС
Exact Audio Copy V0.99 prebeta 4 from 23. January 2008
Отчёт EAC об извлечении, выполненном 27. февраля 2008, 15:04
AALY Trio & Ken Vandermark / I Wonder If I Was Screaming
Дисковод: PLEXTOR DVDR PX-755A Adapter: 3 ID: 0
Режим чтения : Достоверность
Использование точного потока : Да
Отключение кэша аудио : Да
Использование указателей C2 : Да
Комбинированное смещение чтения/записи : 0
Способность читать области Lead-in и Lead-out : Нет
Заполнение пропущенных сэмплов тишиной : Да
Удаление блоков с тишиной в начале и конце : Нет
При вычислениях CRC использовались нулевые сэмплы : Нет
Интерфейс : Установленный внешний ASPI-интерфейс
Выходной формат : Внутренние WAV-операции
Формат сэмплов : 44.100 Гц; 16 бит; стерео
TOC извлечённого CD
Трек | Старт | Длительность | Начальный сектор | Конечный сектор
---------------------------------------------------------------------
1 | 0:00.00 | 6:30.37 | 0 | 29286
2 | 6:30.37 | 8:12.38 | 29287 | 66224
3 | 14:43.00 | 10:09.62 | 66225 | 111961
4 | 24:52.62 | 7:55.23 | 111962 | 147609
5 | 32:48.10 | 9:10.27 | 147610 | 188886
6 | 41:58.37 | 10:39.49 | 188887 | 236860
Характеристики диапазона извлечения и сообщения об ошибках
Выбранный диапазон
Имя файла E:\Мои документы\Моя музыка\Upload\AALY Trio & Ken Vandermark - I Wonder If I Was Screaming\AALY Trio & Ken Vandermark - I Wonder If I Was Screaming.wav
Пиковый уровень 98.8 %
Качество диапазона 100.0 %
CRC копии 64B73737
Копирование... OK
Ошибок не произошло
Конец отчёта
 
TauAnalyzer
Доп. информация:
Состав:
Mats Gustafsson (ts, as)
Ken Vandermark (ts, cl)
Peter Janson (b)
Kjell Nordeson (d)
2000 – March 30 & 31
Soundtrade Studios
Stockholm (Sweden)
Label: Crazy Wisdom
Рип с CD-R. Сканов не имею.
Приватный:
Нет (DHT включён)
Размер:
294.60 Мб (308,905,544 байт) » файлов: 4
Участники:
0 раздают, 0 качают (0 участников всего)
Внешние участники:
2 раздают, 1 качают (3 участников всего) [ Обновить ]
Есть вопросы - пишите личное сообщение пользователю M0p94ok.
23:42
81
Нет комментариев. Ваш будет первым!