Поиск

(Free-Jazz, Avant-Garde) AALY Trio & Ken Vandermark - Hidden in the Stomach - 1997, FLAC (image + .cue), lossless

Треклист:
AALY Trio & Ken Vandermark - Hidden in the Stomach
Страна: Sweden
Жанр: Free-Jazz, Avant-Garde
Год выпуска: 1997
Формат: FLAC (image + .cue)
Битрейт аудио: lossless
Трэклист:
1. Structure A La Malle (13:37)
2. Why I Don't Go Back (10:00)
3. Song For Che (8:52)
4. Unknown Title (8:25)
5. Albumblatt Again (1:46)
6. Ghosts / Spirits (Albert Ayler) (11:52)
 
Отчет ЕАС
Exact Audio Copy V0.99 prebeta 3 from 28. July 2007
Отчёт EAC об извлечении, выполненном 16. января 2008, 15:41
AALY Trio & Ken Vandermark / Hidden in the Stomach
Дисковод: PLEXTOR DVDR PX-755A Adapter: 2 ID: 0
Режим чтения : Достоверность
Использование точного потока : Да
Отключение кэша аудио : Да
Использование указателей C2 : Да
Коррекция смещения при чтении : 30
Способность читать области Lead-in и Lead-out : Нет
Заполнение пропущенных сэмплов тишиной : Да
Удаление блоков с тишиной в начале и конце : Нет
При вычислениях CRC использовались нулевые сэмплы : Нет
Интерфейс : Установленный внешний ASPI-интерфейс
Выходной формат : Внутренние WAV-операции
Формат сэмплов : 44.100 Гц; 16 бит; стерео
TOC извлечённого CD
Трек | Старт | Длительность | Начальный сектор | Конечный сектор
---------------------------------------------------------------------
1 | 0:00.00 | 13:34.37 | 0 | 61086
2 | 13:34.37 | 10:14.53 | 61087 | 107189
3 | 23:49.15 | 9:00.62 | 107190 | 147751
4 | 32:50.02 | 8:27.58 | 147752 | 185834
5 | 41:17.60 | 1:47.65 | 185835 | 193924
6 | 43:05.50 | 11:56.30 | 193925 | 247654
Характеристики диапазона извлечения и сообщения об ошибках
Выбранный диапазон
Имя файла G:\AALY Trio & Ken Vandermark - Hidden in the Stomach\AALY Trio & Ken Vandermark - Hidden in the Stomach.wav
Пиковый уровень 100.0 %
Качество диапазона 99.9 %
CRC копии 61083FFE
Копирование... OK
Ошибок не произошло
Конец отчёта
 
TauAnalyzer
Доп. информация:
Состав:
Bass - Peter Janson
Drums, Percussion - Kjell Nordeson
Saxophone [Tenor], Clarinet, Clarinet [Bass] - Ken Vandermark
Saxophone [Tenor], Saxophone [Baritone] - Mats Gustafsson

Recorded December 18, 1996, at Europa Studios, Stockholm.
Рип с CD-R. Сканов не имею.
Приватный:
Нет (DHT включён)
Размер:
343.24 Мб (359,908,243 байт) » файлов: 3
Участники:
0 раздают, 0 качают (0 участников всего)
Внешние участники:
3 раздают, 1 качают (4 участников всего) [ Обновить ]
Есть вопросы - пишите личное сообщение пользователю M0p94ok.
23:38
56
Нет комментариев. Ваш будет первым!