Поиск

(Free Jazz, Art / Alt Rock, Modern Creative, Skin Graft) The Denison - Kimball Trio (DK3) [музыканты The Jesus Lizard, Mule, Laughing Hyenas, Tomahawk, Ken Vandermark] - Дискография - 1994-1997 [3CD], FLAC (tracks+.cue), lossless

(Free Jazz, Art / Alt Rock, Modern Creative, Skin Graft) The Denison - Kimball Trio (DK3) [музыканты The Jesus Lizard, Mule, Laughing Hyenas, Tomahawk, Ken Vandermark] - Дискография - 1994-1997 [3CD], FLAC (tracks+.cue), lossless
Треклист:
The Denison - Kimball Trio / Дискография
=============================================================

=============================================================
Ken Vandermark + Jim Kimball + Duane Denison
Жанр: Free Jazz, Art / Alt Rock, Modern Creative
Страна-производитель диска: US
Год издания диска: 1994-1997
Издатель (лейбл): Skin Graft Records, Quarterstick Records
Страна: US
Аудиокодек: FLAC (*.flac)
Тип рипа: tracks+.cue
Битрейт аудио: lossless
Продолжительность: 01:42:20
Источник (релизер): What.cd
zembu, ambitus, 3up18h11
Наличие сканов в содержимом раздачи: нет
 
1994 - Walls in the City
Label: Skin Graft Records
Catalog#: GR16CD
Продолжительность: 00:31:21
Трэклист:
01. Prelude 3:29
02. Cold Light Of Day 2:06
03. Walk Away 4:21
04. Reunion 1:27
05. Harry's Theme 3:17
06. One If By Land... 1:41
07. Romantic Interlude 2:49
08. Separate Checks 3:27
09. Blue Corridor 0:51
10. Postlude 4:19
11. ...Two If By Sea 3:29
Credits ▼
Artwork – Dan Grzeca
Executive Producer – Mark Fischer
Guitar – Duane Denison
Percussion [Brushes], Bongos – Jim Kimball
Producer – D.K.T.*, Jim Sikora
Recorded By – Casey Rice
Written-By – Denison/Kimball Trio*
Notes ▼
Plays the music of "Walls In The City" - a film by Jim Sikora
Recorded at Idful Music on April 26, 1994.
Mixed on April 27, 1994.
 
Лог создания рипа
Exact Audio Copy V0.99 prebeta 5 from 4. May 2009
EAC extraction logfile from 13. July 2010, 23:43
The Denison Kimball Trio / Walls in the City
Used drive : _NEC DVD+RW ND-1100A Adapter: 1 ID: 1
Read mode : Secure
Utilize accurate stream : Yes
Defeat audio cache : Yes
Make use of C2 pointers : No
Read offset correction : 48
Overread into Lead-In and Lead-Out : No
Fill up missing offset samples with silence : Yes
Delete leading and trailing silent blocks : No
Null samples used in CRC calculations : Yes
Used interface : Native Win32 interface for Win NT & 2000
Gap handling : Appended to previous track
Used output format : User Defined Encoder
Selected bitrate : 320 kBit/s
Quality : High
Add ID3 tag : No
Command line compressor : C:\Program Files\Exact Audio Copy\Flac\flac.exe
Additional command line options : -V -8 -T "artist=%a" -T "title=%t" -T "album=%g" -T "date=%y" -T "tracknumber=%n" -T "genre=%m" %s
TOC of the extracted CD
Track | Start | Length | Start sector | End sector
---------------------------------------------------------
1 | 0:00.00 | 3:29.15 | 0 | 15689
2 | 3:29.15 | 2:06.41 | 15690 | 25180
3 | 5:35.56 | 4:21.50 | 25181 | 44805
4 | 9:57.31 | 1:27.48 | 44806 | 51378
5 | 11:25.04 | 3:17.02 | 51379 | 66155
6 | 14:42.06 | 1:41.45 | 66156 | 73775
7 | 16:23.51 | 2:49.73 | 73776 | 86523
8 | 19:13.49 | 3:27.11 | 86524 | 102059
9 | 22:40.60 | 0:51.21 | 102060 | 105905
10 | 23:32.06 | 4:19.34 | 105906 | 125364
11 | 27:51.40 | 3:29.35 | 125365 | 141074
Track 1
Filename C:\EACrips\The Denison Kimball Trio - 1994 - Walls in the City\01 - Prelude.wav
Pre-gap length 0:00:02.00
Peak level 95.3 %
Track quality 99.9 %
Test CRC 4B327A08
Copy CRC 4B327A08
Accurately ripped (confidence 1) [0290F78C]
Copy OK
Track 2
Filename C:\EACrips\The Denison Kimball Trio - 1994 - Walls in the City\02 - Cold Light of Day.wav
Peak level 100.0 %
Track quality 100.0 %
Test CRC C21ACF02
Copy CRC C21ACF02
Accurately ripped (confidence 1) [93FCB273]
Copy OK
Track 3
Filename C:\EACrips\The Denison Kimball Trio - 1994 - Walls in the City\03 - Walk Away.wav
Peak level 100.0 %
Track quality 99.9 %
Test CRC D0F627B6
Copy CRC D0F627B6
Accurately ripped (confidence 1) [F838BE23]
Copy OK
Track 4
Filename C:\EACrips\The Denison Kimball Trio - 1994 - Walls in the City\04 - Reunion.wav
Peak level 100.0 %
Track quality 99.8 %
Test CRC FD6A9DD0
Copy CRC FD6A9DD0
Accurately ripped (confidence 1) [F9CE9BF6]
Copy OK
Track 5
Filename C:\EACrips\The Denison Kimball Trio - 1994 - Walls in the City\05 - Harry's Theme.wav
Peak level 100.0 %
Track quality 100.0 %
Test CRC F8861777
Copy CRC F8861777
Accurately ripped (confidence 1) [A19B6EFB]
Copy OK
Track 6
Filename C:\EACrips\The Denison Kimball Trio - 1994 - Walls in the City\06 - One if by Land....wav
Pre-gap length 0:00:00.02
Peak level 100.0 %
Track quality 99.8 %
Test CRC DD3AA32E
Copy CRC DD3AA32E
Accurately ripped (confidence 1) [A1021385]
Copy OK
Track 7
Filename C:\EACrips\The Denison Kimball Trio - 1994 - Walls in the City\07 - Romantic Interlude.wav
Peak level 98.5 %
Track quality 100.0 %
Test CRC 47B1E8F5
Copy CRC 47B1E8F5
Accurately ripped (confidence 1) [F624E507]
Copy OK
Track 8
Filename C:\EACrips\The Denison Kimball Trio - 1994 - Walls in the City\08 - Separate Checks.wav
Peak level 100.0 %
Track quality 100.0 %
Test CRC 238D4A3F
Copy CRC 238D4A3F
Accurately ripped (confidence 1) [BFDBDD32]
Copy OK
Track 9
Filename C:\EACrips\The Denison Kimball Trio - 1994 - Walls in the City\09 - Blue Corridor.wav
Peak level 100.0 %
Track quality 100.0 %
Test CRC 14B97D10
Copy CRC 14B97D10
Accurately ripped (confidence 1) [31E6100B]
Copy OK
Track 10
Filename C:\EACrips\The Denison Kimball Trio - 1994 - Walls in the City\10 - Postlude.wav
Pre-gap length 0:00:00.77
Peak level 100.0 %
Track quality 100.0 %
Test CRC 3FDF1EF9
Copy CRC 3FDF1EF9
Accurately ripped (confidence 1) [F2ED18B1]
Copy OK
Track 11
Filename C:\EACrips\The Denison Kimball Trio - 1994 - Walls in the City\11 - ...Two if by Sea.wav
Pre-gap length 0:00:00.34
Peak level 100.0 %
Track quality 100.0 %
Test CRC 2ECE1C3E
Copy CRC 2ECE1C3E
Accurately ripped (confidence 1) [70DB51BB]
Copy OK
All tracks accurately ripped
No errors occurred
End of status report
 
Содержание индексной карты (.CUE)
REM GENRE Soundtrack
REM DATE 1994
REM DISCID 9C07590B
REM COMMENT "ExactAudioCopy v0.99pb5"
FILE "01 - Prelude.wav" WAVE
TRACK 01 AUDIO
INDEX 01 00:00:00
FILE "02 - Cold Light of Day.wav" WAVE
TRACK 02 AUDIO
INDEX 01 00:00:00
FILE "03 - Walk Away.wav" WAVE
TRACK 03 AUDIO
INDEX 01 00:00:00
FILE "04 - Reunion.wav" WAVE
TRACK 04 AUDIO
INDEX 01 00:00:00
FILE "05 - Harry's Theme.wav" WAVE
TRACK 05 AUDIO
INDEX 01 00:00:00
TRACK 06 AUDIO
INDEX 00 03:17:00
FILE "06 - One if by Land....wav" WAVE
INDEX 01 00:00:00
FILE "07 - Romantic Interlude.wav" WAVE
TRACK 07 AUDIO
INDEX 01 00:00:00
FILE "08 - Separate Checks.wav" WAVE
TRACK 08 AUDIO
INDEX 01 00:00:00
FILE "09 - Blue Corridor.wav" WAVE
TRACK 09 AUDIO
INDEX 01 00:00:00
TRACK 10 AUDIO
INDEX 00 00:50:38
FILE "10 - Postlude.wav" WAVE
INDEX 01 00:00:00
TRACK 11 AUDIO
INDEX 00 04:19:08
FILE "11 - ...Two if by Sea.wav" WAVE
INDEX 01 00:00:00
 
Лог проверки качества
AUDIOCHECKER v2.0 beta (build 457) - by Dester - opdester@freemail.hu
~~~~~~~~~~~~~~~~~~~~~~~~~~~~~~~~~~
-=== DO NOT EDIT THIS FILE! ===-
Path: ...\The Denison Kimball Trio - 1994 - Walls in the City
01 -=- 01 - Prelude.flac -=- CDDA (100%)
02 -=- 02 - Cold Light of Day.flac -=- CDDA (100%)
03 -=- 03 - Walk Away.flac -=- CDDA (100%)
04 -=- 04 - Reunion.flac -=- CDDA (100%)
05 -=- 05 - Harry's Theme.flac -=- CDDA (100%)
06 -=- 06 - One if by Land....flac -=- CDDA (100%)
07 -=- 07 - Romantic Interlude.flac -=- CDDA (100%)
08 -=- 08 - Separate Checks.flac -=- MPEG (95%)
09 -=- 09 - Blue Corridor.flac -=- CDDA (100%)
10 -=- 10 - Postlude.flac -=- CDDA (100%)
11 -=- 11 - ...Two if by Sea.flac -=- CDDA (100%)
Summary 91,36% CDDA
28667556
 
1995 - Soul Machine
Label: Skin Graft Records
Catalog#: GR 22CD
Продолжительность: 00:37:09
Трэклист:
01. Terminal 2 3:50
02. Soul Machine 3:16
Keyboards – David Wm. Sims*
03. Ad Infinitum 3:25
04. Lonely Woman 4:04
Composed By – Ornette Coleman
05. Factory Loop 4:46
Bass – Reg Schrader
06. Framed 2:18
07. Passing Blue 3:19
08. Blueball Avenue 5:02
Saxophone – Ken Vandermark
09. Trans - Mission 4:03
10. Solitaire 3:02
Companies etc ▼
Recorded At – Idful Music
Copyright (c) – Skin Graft Records
Phonographic Copyright (p) – Skin Graft Records
Credits ▼
Design – Mark Fischer (5)
Guitar, Other [Shortwave] – Duane Denison
Percussion [Brushes], Bongos – Jim Kimball
Photography By [All Other Photos] – Todd Harris (5)
Photography By [Cover] – Brad Miller (3)
Producer – D/K Trio, The*
Recorded By – Casey Rice
 
Лог создания рипа
X Lossless Decoder version 20091212 (114.6)
XLD extraction logfile from 2009-12-14 20:39:24 -0500
Denison Kimball Trio / Soul Machine
Used drive : MATSHITA DVD-R UJ-857E (revision ZF1E)
Use cdparanoia mode : YES (CDParanoia III 10.2 engine)
Disable audio cache : OK for the drive with cache less than 2750KB
Make use of C2 pointers : NO
Read offset correction : 102
Max retry count : 100
TOC of the extracted CD
Track | Start | Length | Start sector | End sector
---------------------------------------------------------
1 | 00:00:00 | 03:50:02 | 0 | 17251
2 | 03:50:02 | 03:16:20 | 17252 | 31971
3 | 07:06:22 | 03:25:00 | 31972 | 47346
4 | 10:31:22 | 04:04:55 | 47347 | 65701
5 | 14:36:02 | 04:46:05 | 65702 | 87156
6 | 19:22:07 | 02:18:43 | 87157 | 97549
7 | 21:40:50 | 03:19:67 | 97550 | 112541
8 | 25:00:42 | 05:02:25 | 112542 | 135216
9 | 30:02:67 | 04:03:50 | 135217 | 153491
10 | 34:06:42 | 03:02:43 | 153492 | 167184
Track 01
Filename : /Users/abulafia/Music/The Denison Kimball Trio - Soul Machine - 1995 (CD - FLAC - Lossless)/01 - Terminal 2.flac
CRC32 hash (test run) : 5B3D133C
CRC32 hash : 5B3D133C
CRC32 hash (skip zero) : 9A6B8AB0
AccurateRip signature : DD9C1A46
->Accurately ripped! (confidence 3)
Statistics
Read error : 0
Skipped (treated as error) : 0
Edge jitter error (maybe fixed) : 0
Atom jitter error (maybe fixed) : 0
Drift error (maybe fixed) : 0
Dropped bytes error (maybe fixed) : 0
Duplicated bytes error (maybe fixed) : 0
Inconsistency in error sectors : 0
Track 02
Filename : /Users/abulafia/Music/The Denison Kimball Trio - Soul Machine - 1995 (CD - FLAC - Lossless)/02 - Soul Machine.flac
CRC32 hash (test run) : 6AD9722F
CRC32 hash : 6AD9722F
CRC32 hash (skip zero) : 8A282164
AccurateRip signature : 0E310CA2
->Accurately ripped! (confidence 3)
Statistics
Read error : 0
Skipped (treated as error) : 0
Edge jitter error (maybe fixed) : 0
Atom jitter error (maybe fixed) : 0
Drift error (maybe fixed) : 0
Dropped bytes error (maybe fixed) : 0
Duplicated bytes error (maybe fixed) : 0
Inconsistency in error sectors : 0
Track 03
Filename : /Users/abulafia/Music/The Denison Kimball Trio - Soul Machine - 1995 (CD - FLAC - Lossless)/03 - Ad Infinitum.flac
CRC32 hash (test run) : F158B3BA
CRC32 hash : F158B3BA
CRC32 hash (skip zero) : BBA19BEF
AccurateRip signature : 0AEF3FF5
->Accurately ripped! (confidence 3)
Statistics
Read error : 0
Skipped (treated as error) : 0
Edge jitter error (maybe fixed) : 0
Atom jitter error (maybe fixed) : 0
Drift error (maybe fixed) : 0
Dropped bytes error (maybe fixed) : 0
Duplicated bytes error (maybe fixed) : 0
Inconsistency in error sectors : 0
Track 04
Filename : /Users/abulafia/Music/The Denison Kimball Trio - Soul Machine - 1995 (CD - FLAC - Lossless)/04 - Lonely Woman.flac
CRC32 hash (test run) : 3A515579
CRC32 hash : 3A515579
CRC32 hash (skip zero) : 393C7AE1
AccurateRip signature : 8A249640
->Accurately ripped! (confidence 3)
Statistics
Read error : 0
Skipped (treated as error) : 0
Edge jitter error (maybe fixed) : 0
Atom jitter error (maybe fixed) : 0
Drift error (maybe fixed) : 0
Dropped bytes error (maybe fixed) : 0
Duplicated bytes error (maybe fixed) : 0
Inconsistency in error sectors : 0
Track 05
Filename : /Users/abulafia/Music/The Denison Kimball Trio - Soul Machine - 1995 (CD - FLAC - Lossless)/05 - Factory Loop.flac
CRC32 hash (test run) : 4400C436
CRC32 hash : 4400C436
CRC32 hash (skip zero) : 1A9B803F
AccurateRip signature : DB296E30
->Accurately ripped! (confidence 3)
Statistics
Read error : 0
Skipped (treated as error) : 0
Edge jitter error (maybe fixed) : 0
Atom jitter error (maybe fixed) : 0
Drift error (maybe fixed) : 0
Dropped bytes error (maybe fixed) : 0
Duplicated bytes error (maybe fixed) : 0
Inconsistency in error sectors : 0
Track 06
Filename : /Users/abulafia/Music/The Denison Kimball Trio - Soul Machine - 1995 (CD - FLAC - Lossless)/06 - Framed.flac
CRC32 hash (test run) : 14076D9C
CRC32 hash : 14076D9C
CRC32 hash (skip zero) : 7876CC1D
AccurateRip signature : CB8EF175
->Accurately ripped! (confidence 3)
Statistics
Read error : 0
Skipped (treated as error) : 0
Edge jitter error (maybe fixed) : 0
Atom jitter error (maybe fixed) : 0
Drift error (maybe fixed) : 0
Dropped bytes error (maybe fixed) : 0
Duplicated bytes error (maybe fixed) : 0
Inconsistency in error sectors : 0
Track 07
Filename : /Users/abulafia/Music/The Denison Kimball Trio - Soul Machine - 1995 (CD - FLAC - Lossless)/07 - Passing Blue.flac
CRC32 hash (test run) : 7330BED0
CRC32 hash : 7330BED0
CRC32 hash (skip zero) : 40EBA39E
AccurateRip signature : A8E3654B
->Accurately ripped! (confidence 3)
Statistics
Read error : 0
Skipped (treated as error) : 0
Edge jitter error (maybe fixed) : 0
Atom jitter error (maybe fixed) : 0
Drift error (maybe fixed) : 0
Dropped bytes error (maybe fixed) : 0
Duplicated bytes error (maybe fixed) : 0
Inconsistency in error sectors : 0
Track 08
Filename : /Users/abulafia/Music/The Denison Kimball Trio - Soul Machine - 1995 (CD - FLAC - Lossless)/08 - Blueball Avenue.flac
CRC32 hash (test run) : E2F0CD4D
CRC32 hash : E2F0CD4D
CRC32 hash (skip zero) : 7B6414BA
AccurateRip signature : 978A372A
->Accurately ripped! (confidence 3)
Statistics
Read error : 0
Skipped (treated as error) : 0
Edge jitter error (maybe fixed) : 0
Atom jitter error (maybe fixed) : 0
Drift error (maybe fixed) : 0
Dropped bytes error (maybe fixed) : 0
Duplicated bytes error (maybe fixed) : 0
Inconsistency in error sectors : 0
Track 09
Filename : /Users/abulafia/Music/The Denison Kimball Trio - Soul Machine - 1995 (CD - FLAC - Lossless)/09 - Trans-mission.flac
CRC32 hash (test run) : 2F361649
CRC32 hash : 2F361649
CRC32 hash (skip zero) : 5AC96E86
AccurateRip signature : 49005AD2
->Accurately ripped! (confidence 3)
Statistics
Read error : 0
Skipped (treated as error) : 0
Edge jitter error (maybe fixed) : 0
Atom jitter error (maybe fixed) : 0
Drift error (maybe fixed) : 0
Dropped bytes error (maybe fixed) : 0
Duplicated bytes error (maybe fixed) : 0
Inconsistency in error sectors : 0
Track 10
Filename : /Users/abulafia/Music/The Denison Kimball Trio - Soul Machine - 1995 (CD - FLAC - Lossless)/10 - Solitaire.flac
CRC32 hash (test run) : 031C597E
CRC32 hash : 031C597E
CRC32 hash (skip zero) : 95CACF8F
AccurateRip signature : F3AE2EFC
->Accurately ripped! (confidence 3)
Statistics
Read error : 0
Skipped (treated as error) : 0
Edge jitter error (maybe fixed) : 0
Atom jitter error (maybe fixed) : 0
Drift error (maybe fixed) : 0
Dropped bytes error (maybe fixed) : 0
Duplicated bytes error (maybe fixed) : 0
Inconsistency in error sectors : 0
No errors occurred
End of status report
 
Содержание индексной карты (.CUE)
TITLE "Soul Machine"
PERFORMER "Denison Kimball Trio"
REM GENRE "Jazz"
REM DATE 1995
FILE "01 - Terminal 2.wav" WAVE
TRACK 01 AUDIO
TITLE "Terminal 2"
INDEX 01 00:00:00
TRACK 02 AUDIO
TITLE "Soul Machine"
INDEX 00 03:49:00
FILE "02 - Soul Machine.wav" WAVE
INDEX 01 00:00:00
TRACK 03 AUDIO
TITLE "Ad Infinitum"
INDEX 00 03:15:63
FILE "03 - Ad Infinitum.wav" WAVE
INDEX 01 00:00:00
TRACK 04 AUDIO
TITLE "Lonely Woman"
INDEX 00 03:22:73
FILE "04 - Lonely Woman.wav" WAVE
INDEX 01 00:00:00
TRACK 05 AUDIO
TITLE "Factory Loop"
INDEX 00 04:03:58
FILE "05 - Factory Loop.wav" WAVE
INDEX 01 00:00:00
TRACK 06 AUDIO
TITLE "Framed"
INDEX 00 04:45:43
FILE "06 - Framed.wav" WAVE
INDEX 01 00:00:00
TRACK 07 AUDIO
TITLE "Passing Blue"
INDEX 00 02:16:25
FILE "07 - Passing Blue.wav" WAVE
INDEX 01 00:00:00
TRACK 08 AUDIO
TITLE "Blueball Avenue"
INDEX 00 03:18:25
FILE "08 - Blueball Avenue.wav" WAVE
INDEX 01 00:00:00
TRACK 09 AUDIO
TITLE "Trans-mission"
INDEX 00 05:00:13
FILE "09 - Trans-mission.wav" WAVE
INDEX 01 00:00:00
TRACK 10 AUDIO
TITLE "Solitaire"
INDEX 00 04:03:16
FILE "10 - Solitaire.wav" WAVE
INDEX 01 00:00:00
 
Лог проверки качества
AUDIOCHECKER v2.0 beta (build 457) - by Dester - opdester@freemail.hu
~~~~~~~~~~~~~~~~~~~~~~~~~~~~~~~~~~
-=== DO NOT EDIT THIS FILE! ===-
Path: ...\The Denison Kimball Trio - 1995 - Soul Machine
01 -=- 01 - Terminal 2.flac -=- CDDA (100%)
02 -=- 02 - Soul Machine.flac -=- CDDA (100%)
03 -=- 03 - Ad Infinitum.flac -=- CDDA (100%)
04 -=- 04 - Lonely Woman.flac -=- CDDA (99%)
05 -=- 05 - Factory Loop.flac -=- CDDA (100%)
06 -=- 06 - Framed.flac -=- CDDA (99%)
07 -=- 07 - Passing Blue.flac -=- CDDA (100%)
08 -=- 08 - Blueball Avenue.flac -=- CDDA (100%)
09 -=- 09 - Trans-mission.flac -=- CDDA (100%)
10 -=- 10 - Solitaire.flac -=- CDDA (100%)
Summary 99,80% CDDA
26675412
 
1997 - Neutrons
Label: Quarterstick Records
Catalog#: QS48CD
Продолжительность: 00:33:50
Трэклист:
1. Downriver 4:15
2. Landshark Pt.2 2:38
3. Monte's Casino 4:17
4. Heavy Water 6:32
5. The Traveling Salesman 2:59
6. Neutrons 5:37
Written-By – DK3*, Jeff Lane (2)
7. Issa 3:52
Recorder – Tom Bickley
Written-By – DK3*, Tom Bickley
8. Lullaby 3:38
Credits ▼
Artwork By – Derek Besant
Artwork By [Layout] – David Lambeth
Drums, Performer [Aquaharp] – James Kimball*
Guitar, Bass – Duane Denison
Recorded By, Mixed By – Jeff Lane (2)
Reeds – Ken Vandermark
Written-By – DK3* (tracks: 1 to 5, 8)
Notes ▼
Recorded and mixed at Chicago Recording Company 3/97.
 
Лог создания рипа
Exact Audio Copy V1.0 beta 1 from 15. November 2010
EAC extraction logfile from 31. May 2011, 22:03
DK3 / "Neutrons"
Used drive : LITE-ON DVDRW LH-20A1L Adapter: 2 ID: 0
Read mode : Secure
Utilize accurate stream : Yes
Defeat audio cache : Yes
Make use of C2 pointers : No
Read offset correction : 6
Overread into Lead-In and Lead-Out : No
Fill up missing offset samples with silence : Yes
Delete leading and trailing silent blocks : No
Null samples used in CRC calculations : No
Used interface : Native Win32 interface for Win NT & 2000
Gap handling : Appended to previous track
Used output format : User Defined Encoder
Selected bitrate : 768 kBit/s
Quality : High
Add ID3 tag : No
Command line compressor : C:\Program Files\Exact Audio Copy\FLAC\FLAC.EXE
Additional command line options : -V -8 -T "artist=%a" -T "title=%t" -T "album=%g" -T "date=%y" -T "tracknumber=%n" -T "genre=%m" %s
TOC of the extracted CD
Track | Start | Length | Start sector | End sector
---------------------------------------------------------
1 | 0:00.00 | 4:15.27 | 0 | 19151
2 | 4:15.27 | 2:38.03 | 19152 | 31004
3 | 6:53.30 | 4:17.20 | 31005 | 50299
4 | 11:10.50 | 6:32.00 | 50300 | 79699
5 | 17:42.50 | 2:59.62 | 79700 | 93186
6 | 20:42.37 | 5:37.08 | 93187 | 118469
7 | 26:19.45 | 3:52.57 | 118470 | 135926
8 | 30:12.27 | 3:38.13 | 135927 | 152289
Track 1
Filename F:\Incoming\DK3 - Neutrons (1997) [FLAC]\Downriver.wav
Pre-gap length 0:00:02.00
Peak level 100.0 %
Extraction speed 1.6 X
Track quality 99.9 %
Test CRC 2A6F2C08
Copy CRC 2A6F2C08
Track not present in AccurateRip database
Copy OK
Track 2
Filename F:\Incoming\DK3 - Neutrons (1997) [FLAC]\Landshark pt. 2.wav
Peak level 100.0 %
Extraction speed 1.5 X
Track quality 99.9 %
Test CRC 7EF23A02
Copy CRC 7EF23A02
Track not present in AccurateRip database
Copy OK
Track 3
Filename F:\Incoming\DK3 - Neutrons (1997) [FLAC]\Monte's Casino.wav
Peak level 100.0 %
Extraction speed 2.1 X
Track quality 100.0 %
Test CRC 25873E68
Copy CRC 25873E68
Track not present in AccurateRip database
Copy OK
Track 4
Filename F:\Incoming\DK3 - Neutrons (1997) [FLAC]\Heavy Water.wav
Peak level 100.0 %
Extraction speed 2.4 X
Track quality 100.0 %
Test CRC 422D0BE2
Copy CRC 422D0BE2
Track not present in AccurateRip database
Copy OK
Track 5
Filename F:\Incoming\DK3 - Neutrons (1997) [FLAC]\The Traveling Salesman.wav
Peak level 100.0 %
Extraction speed 2.4 X
Track quality 100.0 %
Test CRC 5965AD03
Copy CRC 5965AD03
Track not present in AccurateRip database
Copy OK
Track 6
Filename F:\Incoming\DK3 - Neutrons (1997) [FLAC]\Neutrons.wav
Peak level 100.0 %
Extraction speed 2.8 X
Track quality 100.0 %
Test CRC B9553B20
Copy CRC B9553B20
Track not present in AccurateRip database
Copy OK
Track 7
Filename F:\Incoming\DK3 - Neutrons (1997) [FLAC]\Issa.wav
Peak level 100.0 %
Extraction speed 2.3 X
Track quality 99.9 %
Test CRC 109A2B34
Copy CRC 109A2B34
Track not present in AccurateRip database
Copy OK
Track 8
Filename F:\Incoming\DK3 - Neutrons (1997) [FLAC]\Lullaby.wav
Peak level 99.0 %
Extraction speed 2.2 X
Track quality 99.9 %
Test CRC 473C7635
Copy CRC 473C7635
Track not present in AccurateRip database
Copy OK
None of the tracks are present in the AccurateRip database
No errors occurred
End of status report
 
Содержание индексной карты (.CUE)
REM GENRE Jazz
REM DATE 1997
REM DISCID 5C07EE08
REM COMMENT "ExactAudioCopy v1.0b1"
PERFORMER "DK3"
TITLE "'Neutrons'"
FILE "Downriver.wav" WAVE
TRACK 01 AUDIO
TITLE "Downriver"
PERFORMER "DK3"
INDEX 01 00:00:00
FILE "Landshark pt. 2.wav" WAVE
TRACK 02 AUDIO
TITLE "Landshark pt. 2"
PERFORMER "DK3"
INDEX 01 00:00:00
FILE "Monte's Casino.wav" WAVE
TRACK 03 AUDIO
TITLE "Monte's Casino"
PERFORMER "DK3"
INDEX 01 00:00:00
FILE "Heavy Water.wav" WAVE
TRACK 04 AUDIO
TITLE "Heavy Water"
PERFORMER "DK3"
INDEX 01 00:00:00
FILE "The Traveling Salesman.wav" WAVE
TRACK 05 AUDIO
TITLE "The Traveling Salesman"
PERFORMER "DK3"
INDEX 01 00:00:00
FILE "Neutrons.wav" WAVE
TRACK 06 AUDIO
TITLE "Neutrons"
PERFORMER "DK3"
INDEX 01 00:00:00
FILE "Issa.wav" WAVE
TRACK 07 AUDIO
TITLE "Issa"
PERFORMER "DK3"
INDEX 01 00:00:00
FILE "Lullaby.wav" WAVE
TRACK 08 AUDIO
TITLE "Lullaby"
PERFORMER "DK3"
INDEX 01 00:00:00
 
Лог проверки качества
AUDIOCHECKER v2.0 beta (build 457) - by Dester - opdester@freemail.hu
~~~~~~~~~~~~~~~~~~~~~~~~~~~~~~~~~~
-=== DO NOT EDIT THIS FILE! ===-
Path: ...\DK3 - Neutrons (1997) [FLAC]
1 -=- 1. Downriver.flac -=- CDDA (99%)
2 -=- 2. Landshark pt. 2.flac -=- CDDA (100%)
3 -=- 3. Monte's Casino.flac -=- CDDA (100%)
4 -=- 4. Heavy Water.flac -=- CDDA (100%)
5 -=- 5. The Traveling Salesman.flac -=- CDDA (100%)
6 -=- 6. Neutrons.flac -=- CDDA (100%)
7 -=- 7. Issa.flac -=- CDDA (100%)
8 -=- 8. Lullaby.flac -=- CDDA (100%)
Summary 99,88% CDDA
92293764
 
Full Biography
Formed as a duo by ex-Jesus Lizard guitarist Duane Denison and ex-Mule, Laughing Hyenas, and Jesus Lizard percussionist Jim Kimball, the Denison-Kimball Trio specialized in cool, jazzy instrumentals. With the addition of reeds player Ken Vandermark in 1995, the group was renamed DK3.
The recipient of a degree in classical guitar from Eastern Michigan University, Denison formed Jesus Lizard in the late '80s with former members of Scratch Acid, David Yow on vocals and David Sims on bass. Although they initially relied on a drum machine, the band was solidified with the addition of drummer Mac McNeilly before recording their debut album, Head, in 1990. Over the next decade, Denison and Jesus Lizard released an additional seven albums before disbanding in 2000.
Performing as a guest on albums by the Revolting Cocks (Linger Ficken' Good), Sally Timms, and Firewater following the demise of Jesus Lizard, Denison joined with Kimball to form the Denison-Kimball Trio. Their debut recording, released in 1994, provided the soundtrack of an indie film, Walls in the City, starring ex-Jesus Lizard frontman David Yow. Their second album, Soul Machine, followed a year later.
Following the breakup of the trio in 1999, Denison toured as a guitarist for Hank Williams III. He formed a new band, Tomahawk, in 2001, with ex-Helmet drummer John Stanier, Melvins bassist Kevin Rutmanis, and Mr. Bungle vocalist Mike Patton.
~ Craig Harris, Rovi
По всем вопросам пишите личное сообщение пользователю M0p94ok.
19:15
218
Нет комментариев. Ваш будет первым!