Вы используете незарегистрированную версию компонента "Вкладки"!

Поиск

(Free Jazz) Archie Shepp - Essential Best (Venus 2009), FLAC (image+.cue), lossless

Треклист:
Archie Shepp / Essential Best
Жанр: Free Jazz
Страна-производитель диска: Japan
Год издания: 2009
Издатель (лейбл): Venus Jazz
Номер по каталогу: VHCD-8004
Страна: USA
Аудиокодек: FLAC (*.flac)
Тип рипа: image+.cue
Битрейт аудио: lossless
Продолжительность: 1:11:55
Дата релиза: 23.12.2011
Источник (релизер): vitl62
Наличие сканов в раздаче: да
 
 
Треклист:
01. The Shadow Of Your Smile [9:56]
02. Here's That Rainy Day [10:05]
03. Blue Train [10:31]
04. I Want To Talk About You [9:46]
05. What Are You Doing The Rest Of Your Life [4:56]
06. Sous Le Ciel De Paris [7:52]
07. Blue In Green [7:59]
08. Alone Together [10:51]
 
 
Настройка EAC (лог рипа отсутствует)
Exact Audio Copy V1.0 beta 1 from 15. November 2010
Used drive : PLEXTOR CD-R PX-W4012S Adapter: 1 ID: 4
Read mode : Secure
Utilize accurate stream : Yes
Defeat audio cache : Yes
Make use of C2 pointers : Yes
Read offset correction : 98
Overread into Lead-In and Lead-Out : Yes
Fill up missing offset samples with silence : Yes
Delete leading and trailing silent blocks : No
Null samples used in CRC calculations : Yes
Used interface : Installed external ASPI interface
Used output format : Internal WAV Routines
Sample format : 44.100 Hz; 16 Bit; Stereo
 
Содержание индексной карты (.CUE)
REM GENRE Jazz
REM DATE 2009
REM DISCID 7210DA08
REM COMMENT "ExactAudioCopy v1.0b1"
PERFORMER "Archie Shepp"
TITLE "Essential Best (2009 Venus HQ)"
FILE "Archie Shepp - Essential Best (2009 Venus HQ).flac" WAVE
TRACK 01 AUDIO
TITLE "The Shadow Of Your Smile"
PERFORMER "Archie Shepp"
INDEX 01 00:00:00
TRACK 02 AUDIO
TITLE "Here's That Rainy Day"
PERFORMER "Archie Shepp"
INDEX 00 09:51:47
INDEX 01 09:56:17
TRACK 03 AUDIO
TITLE "Blue Train"
PERFORMER "Archie Shepp"
INDEX 00 19:56:16
INDEX 01 20:00:61
TRACK 04 AUDIO
TITLE "I Want To Talk About You"
PERFORMER "Archie Shepp"
INDEX 00 30:27:17
INDEX 01 30:31:62
TRACK 05 AUDIO
TITLE "What Are You Doing The Rest Of Your Life"
PERFORMER "Archie Shepp"
INDEX 00 40:13:18
INDEX 01 40:17:63
TRACK 06 AUDIO
TITLE "Sous Le Ciel De Paris"
PERFORMER "Archie Shepp"
INDEX 00 45:08:61
INDEX 01 45:13:31
TRACK 07 AUDIO
TITLE "Blue In Green"
PERFORMER "Archie Shepp"
INDEX 00 53:00:42
INDEX 01 53:05:12
TRACK 08 AUDIO
TITLE "Alone Together"
PERFORMER "Archie Shepp"
INDEX 00 60:59:23
INDEX 01 61:03:68
 
Лог CUETools
[CUETools log; Date: 24.05.2012 1:45:59; Version: 2.1.4]
[CTDB TOCID: EfrfqewimCdTGaEYbC04gXjZsew-] disk not present in database.
[AccurateRip ID: 0016cd27-0095d78b-7210da08] found.
Track [ CRC | V2 ] Status
01 [4646bae0|cd977701] (2+0/2) Accurately ripped
02 [67b3fada|ebb1969a] (2+0/2) Accurately ripped
03 [1d99e7b4|e3764733] (2+0/2) Accurately ripped
04 [23a83692|1db20dc5] (2+0/2) Accurately ripped
05 [5b0c11e3|1e13041f] (2+0/2) Accurately ripped
06 [cfbd2f66|53b62831] (2+0/2) Accurately ripped
07 [6dcbe008|b2272d6f] (2+0/2) Accurately ripped
08 [ad30e004|604f4f79] (2+0/2) Accurately ripped
Track Peak [ CRC32 ] [W/O NULL]
-- 100,0 [F9CCC9B3] [DE085D11]
01 100,0 [FE4B4B6A] [29219D00]
02 99,5 [F93261C9] [197167A8]
03 100,0 [1CBA559D] [C2A6431B]
04 100,0 [178B9A95] [67E235B2]
05 100,0 [4723789E] [9C773335]
06 100,0 [87A8BF35] [E50F1889]
07 97,3 [2151F587] [EC7D7FDF]
08 99,2 [211DFAC1] [4517B540]
 
Лог AudioChecker'а
AUDIOCHECKER v2.0 beta (build 457) - by Dester - opdester@freemail.hu
~~~~~~~~~~~~~~~~~~~~~~~~~~~~~~~~~~
Начато: четверг, 24. 05. 2012. - 1:56.46
Найдено файлов: 1
1 -===- X:\EAC.Tools\AudioChecker\TEMP\Archie Shepp - Essential Best (2009 Venus HQ).flac
Извлечение успешно выполнено
Заключение: этот трек - CDDA с вероятностью 100%
Временный файл удалён.
Завершено: четверг, 24. 05. 2012. - 2:01.26 (Время операции: 0:04.40)
Any questions -> support@pro-jazz.com. По всем вопросам пишите -> support@pro-jazz.com
01:00
260
Нет комментариев. Ваш будет первым!