Вы используете незарегистрированную версию компонента "Вкладки"!

Поиск

(Free Jazz) Archie Shepp & Horace Parlan - Trouble in Mind - 1980, FLAC (tracks+.cue), lossless

(Free Jazz) Archie Shepp & Horace Parlan - Trouble in Mind - 1980, FLAC (tracks+.cue), lossless
Треклист:
Archie Shepp & Horace Parlan - Trouble in Mind
Жанр: Free Jazz
Страна-производитель диска: США
Год издания: 1986
Издатель (лейбл): SteepleChase
Номер по каталогу: SCCD-31139
Аудиокодек: FLAC (*.flac)
Тип рипа: tracks+.cue
Битрейт аудио: lossless
Продолжительность: 50:40
Источник (релизер): TryWait
Наличие сканов в содержимом раздачи: да
Треклист:
01. Backwater Blues (2:42)
02. Trouble in Mind (3:26)
03. Nobody Knows You When You're Down and Out (5:55)
04. Careless Love Blues (2:36)
05. How Long Blues (5:01)
06. Blues in Thirds (5:16)
07. When Things Go Wrong (5:06)
08. Goin' Down Slow (4:26)
09. Courthouse Blues (3:41)
10. See See Rider (4:43)
11. Make Me a Pallet on the Floor (3:26)
12. St. James Infirmary (4:22)
Состав:
Archie Shepp - tenor saxophone, soprano saxophone
Horace Parlan - piano
Recorded at Sweet Silence Studio, Copenhagen on February 6, 1980.
Track 6 by E. Hines. All other titles trad., arr. A. Shepp.
 
Лог создания рипа
EAC extraction logfile from 13. September 2007, 19:20 for CD
Archie Shepp & Horace Parlan / Trouble In Mind
Used drive : HL-DT-STDVD+RW GCA-4040N Adapter: 1 ID: 0
Read mode : Secure with NO C2, accurate stream, disable cache
Read offset correction : 48
Overread into Lead-In and Lead-Out : No
Used output format : C:\Program Files\FLAC\flac.exe (User Defined Encoder)
320 kBit/s
Additional command line options : -8 -V -T "ARTIST=%a" -T "TITLE=%t" -T "ALBUM=%g" -T "DATE=%y" -T "TRACKNUMBER=%n" -T "GENRE=%m" -T "COMMENT=EAC FLAC -8" %s
Other options :
Fill up missing offset samples with silence : Yes
Delete leading and trailing silent blocks : No
Installed external ASPI interface
Track 1
Filename C:\Rips\Archie Shepp & Horace Parlan - Trouble In Mind (1991) [FLAC]\01 - Backwater Blues.wav
Pre-gap length 0:00:02.96
Peak level 64.2 %
Track quality 100.0 %
Test CRC 0CA71DB9
Copy CRC 0CA71DB9
Copy OK
Track 2
Filename C:\Rips\Archie Shepp & Horace Parlan - Trouble In Mind (1991) [FLAC]\02 - Trouble In Mind.wav
Pre-gap length 0:00:02.00
Peak level 71.1 %
Track quality 100.0 %
Test CRC ACE97D0D
Copy CRC ACE97D0D
Copy OK
Track 3
Filename C:\Rips\Archie Shepp & Horace Parlan - Trouble In Mind (1991) [FLAC]\03 - Nobody Knows You When You're Down And Out.wav
Pre-gap length 0:00:02.00
Peak level 59.8 %
Track quality 99.9 %
Test CRC 532163B3
Copy CRC 532163B3
Copy OK
Track 4
Filename C:\Rips\Archie Shepp & Horace Parlan - Trouble In Mind (1991) [FLAC]\04 - Careless Love Blues.wav
Pre-gap length 0:00:02.00
Peak level 59.3 %
Track quality 100.0 %
Test CRC D9AA7230
Copy CRC D9AA7230
Copy OK
Track 5
Filename C:\Rips\Archie Shepp & Horace Parlan - Trouble In Mind (1991) [FLAC]\05 - How Long Blues.wav
Pre-gap length 0:00:02.00
Peak level 80.9 %
Track quality 100.0 %
Test CRC 9E9ED354
Copy CRC 9E9ED354
Copy OK
Track 6
Filename C:\Rips\Archie Shepp & Horace Parlan - Trouble In Mind (1991) [FLAC]\06 - Blues In Thirds.wav
Pre-gap length 0:00:02.00
Peak level 57.8 %
Track quality 100.0 %
Test CRC 3920E582
Copy CRC 3920E582
Copy OK
Track 7
Filename C:\Rips\Archie Shepp & Horace Parlan - Trouble In Mind (1991) [FLAC]\07 - When Things Go Wrong.wav
Pre-gap length 0:00:02.00
Peak level 69.3 %
Track quality 100.0 %
Test CRC 0BA37F50
Copy CRC 0BA37F50
Copy OK
Track 8
Filename C:\Rips\Archie Shepp & Horace Parlan - Trouble In Mind (1991) [FLAC]\08 - Goin' Down Slow.wav
Pre-gap length 0:00:02.00
Peak level 76.3 %
Track quality 100.0 %
Test CRC 4821536F
Copy CRC 4821536F
Copy OK
Track 9
Filename C:\Rips\Archie Shepp & Horace Parlan - Trouble In Mind (1991) [FLAC]\09 - Courthouse Blues.wav
Pre-gap length 0:00:02.00
Peak level 63.7 %
Track quality 100.0 %
Test CRC E3C451DD
Copy CRC E3C451DD
Copy OK
Track 10
Filename C:\Rips\Archie Shepp & Horace Parlan - Trouble In Mind (1991) [FLAC]\10 - See See Rider.wav
Pre-gap length 0:00:02.00
Peak level 92.2 %
Track quality 100.0 %
Test CRC 8D04A2E0
Copy CRC 8D04A2E0
Copy OK
Track 11
Filename C:\Rips\Archie Shepp & Horace Parlan - Trouble In Mind (1991) [FLAC]\11 - Make Me A Pallet On The Floor.wav
Pre-gap length 0:00:02.00
Peak level 59.4 %
Track quality 100.0 %
Test CRC E68C48F1
Copy CRC E68C48F1
Copy OK
Track 12
Filename C:\Rips\Archie Shepp & Horace Parlan - Trouble In Mind (1991) [FLAC]\12 - St. James Infirmary.wav
Pre-gap length 0:00:02.00
Peak level 68.4 %
Track quality 100.0 %
Test CRC 1BA1E81E
Copy CRC 1BA1E81E
Copy OK
No errors occured
End of status report
 
Содержание индексной карты (.CUE)
REM GENRE Jazz
REM DATE 1980
REM DISCID AF0BE20C
REM COMMENT "ExactAudioCopy v0.95b3"
PERFORMER "Archie Shepp & Horace Parlan"
TITLE "Trouble in Mind"
FILE "01 - Backwater Blues.wav" WAVE
TRACK 01 AUDIO
TITLE "Backwater Blues"
PERFORMER "Archie Shepp & Horace Parlan"
PREGAP 00:00:72
INDEX 01 00:00:00
TRACK 02 AUDIO
TITLE "Trouble in Mind"
PERFORMER "Archie Shepp & Horace Parlan"
INDEX 00 02:40:10
FILE "02 - Trouble in Mind.wav" WAVE
INDEX 01 00:00:00
TRACK 03 AUDIO
TITLE "Nobody Knows You When You're Down and Out"
PERFORMER "Archie Shepp & Horace Parlan"
INDEX 00 03:24:25
FILE "03 - Nobody Knows You When You're Down and Out.wav" WAVE
INDEX 01 00:00:00
TRACK 04 AUDIO
TITLE "Careless Love Blues"
PERFORMER "Archie Shepp & Horace Parlan"
INDEX 00 05:53:25
FILE "04 - Careless Love Blues.wav" WAVE
INDEX 01 00:00:00
TRACK 05 AUDIO
TITLE "How Long Blues"
PERFORMER "Archie Shepp & Horace Parlan"
INDEX 00 02:34:23
FILE "05 - How Long Blues.wav" WAVE
INDEX 01 00:00:00
TRACK 06 AUDIO
TITLE "Blues in Thirds"
PERFORMER "Archie Shepp & Horace Parlan"
INDEX 00 04:58:55
FILE "06 - Blues in Thirds.wav" WAVE
INDEX 01 00:00:00
TRACK 07 AUDIO
TITLE "When Things Go Wrong"
PERFORMER "Archie Shepp & Horace Parlan"
INDEX 00 05:14:10
FILE "07 - When Things Go Wrong.wav" WAVE
INDEX 01 00:00:00
TRACK 08 AUDIO
TITLE "Goin' Down Slow"
PERFORMER "Archie Shepp & Horace Parlan"
INDEX 00 05:03:50
FILE "08 - Goin' Down Slow.wav" WAVE
INDEX 01 00:00:00
TRACK 09 AUDIO
TITLE "Courthouse Blues"
PERFORMER "Archie Shepp & Horace Parlan"
INDEX 00 04:24:30
FILE "09 - Courthouse Blues.wav" WAVE
INDEX 01 00:00:00
TRACK 10 AUDIO
TITLE "See See Rider"
PERFORMER "Archie Shepp & Horace Parlan"
INDEX 00 03:39:22
FILE "10 - See See Rider.wav" WAVE
INDEX 01 00:00:00
TRACK 11 AUDIO
TITLE "Make Me a Pallet on the Floor"
PERFORMER "Archie Shepp & Horace Parlan"
INDEX 00 04:41:05
FILE "11 - Make Me a Pallet on the Floor.wav" WAVE
INDEX 01 00:00:00
TRACK 12 AUDIO
TITLE "St. James Infirmary"
PERFORMER "Archie Shepp & Horace Parlan"
INDEX 00 03:24:35
FILE "12 - St. James Infirmary.wav" WAVE
INDEX 01 00:00:00
 
Отчет CUETools
[CUETools log; Date: 11.04.2013 4:18:36; Version: 2.1.4]
Pregap length 00:00:72.
[CTDB TOCID: vCCVTyKGIzBhf8xy6QBAXgCjVWA-] disk not present in database.
[AccurateRip ID: 00162e58-00d209cb-af0be20c] found.
Track [ CRC | V2 ] Status
01 [6a4d5f37|ac1a60dd] (05+00/25) Accurately ripped
02 [2063ad72|46f6cfec] (05+00/27) Accurately ripped
03 [73b0560b|ec450872] (05+00/27) Accurately ripped
04 [1748d701|218ce429] (05+00/27) Accurately ripped
05 [91a38015|6c3852a7] (05+00/27) Accurately ripped
06 [d5219826|893171d8] (05+00/27) Accurately ripped
07 [1a600308|0c958b19] (05+00/27) Accurately ripped
08 [d24ce2b7|f32b6f74] (05+00/27) Accurately ripped
09 [d769b859|502b408a] (05+00/27) Accurately ripped
10 [e91c7718|baedea95] (05+00/26) Accurately ripped
11 [2504021c|cbc81314] (05+00/26) Accurately ripped
12 [014904bd|3271eafc] (05+00/26) Accurately ripped
Offsetted by -664:
01 [2ab78497] (07/25) Accurately ripped
02 [b117e6f2] (07/27) Accurately ripped
03 [922bc793] (07/27) Accurately ripped
04 [63624a31] (07/27) Accurately ripped
05 [b337cd15] (07/27) Accurately ripped
06 [104dc416] (07/27) Accurately ripped
07 [1a08d0a0] (07/27) Accurately ripped
08 [4f46b69f] (07/27) Accurately ripped
09 [a9353621] (07/27) Accurately ripped
10 [e04bf3f0] (06/26) Accurately ripped
11 [baa869dc] (06/26) Accurately ripped
12 [44aa9a2d] (06/26) Accurately ripped
Offsetted by 268:
01 [58c91587] (13/25) Accurately ripped
02 [29d714b2] (13/27) Accurately ripped
03 [ea785807] (13/27) Accurately ripped
04 [1d94ede9] (13/27) Accurately ripped
05 [01005195] (13/27) Accurately ripped
06 [52d6b4ae] (13/27) Accurately ripped
07 [7ec0e47c] (13/27) Accurately ripped
08 [d2bff483] (13/27) Accurately ripped
09 [d6038a35] (13/27) Accurately ripped
10 [3e675eec] (13/26) Accurately ripped
11 [5491d83c] (13/26) Accurately ripped
12 [a5517085] (13/26) Accurately ripped
Offsetted by -2248:
01 [e64ef357] (00/25) No match (V2 was not tested)
02 [19b669f2] (02/27) Accurately ripped
03 [e73995a3] (02/27) Accurately ripped
04 [acf87291] (02/27) Accurately ripped
05 [f6fc4715] (02/27) Accurately ripped
06 [f3d2e5f6] (02/27) Accurately ripped
07 [aa2f8cd0] (02/27) Accurately ripped
08 [44fa4d6f] (02/27) Accurately ripped
09 [eaca74b1] (02/27) Accurately ripped
10 [123586a0] (02/26) Accurately ripped
11 [cf71615c] (02/26) Accurately ripped
12 [e2529f0d] (02/26) Accurately ripped
Track Peak [ CRC32 ] [W/O NULL] [ LOG ]
-- 92,2 [8EDA3863] [B0377391]
01 64,2 [0CA71DB9] [7776227B] CRC32
02 71,1 [ACE97D0D] [475289C3] CRC32
03 59,8 [532163B3] [4D6992DF] CRC32
04 59,3 [D9AA7230] [19961BA9] CRC32
05 80,9 [9E9ED354] [3F27C306] CRC32
06 57,8 [3920E582] [2198D66C] CRC32
07 69,3 [0BA37F50] [FAA8E7D0] CRC32
08 76,3 [4821536F] [39208E25] CRC32
09 63,7 [E3C451DD] [5EA02C8E] CRC32
10 92,2 [8D04A2E0] [F80C1573] CRC32
11 59,4 [E68C48F1] [0AA3312D] CRC32
12 68,4 [1BA1E81E] [FC6A0D77] CRC32
 
Review by Scott Yanow
The second set of duets by Archie Shepp (doubling on tenor and soprano) and pianist Horace Parlan (the earlier SteepleChase set is Goin' Home) features the duo on a dozen blues-oriented pieces from the 1920s, two of which were released for the first time on this CD reissue. It is particularly interesting to hear Shepp, best known for his ferocious free jazz performances of the mid-to-late '60s, adjusting his sound and giving such songs as "Trouble in Mind," Earl Hines's "Blues in Thirds" and "St. James Infirmary" tasteful and respectful yet emotional treatment. Recommended.
Any questions -> support@pro-jazz.com. По всем вопросам пишите -> support@pro-jazz.com
10:52
261
Нет комментариев. Ваш будет первым!