Вы используете незарегистрированную версию компонента "Вкладки"!

Поиск

(Free Jazz) Anthony Braxton - Solo (Pisa) 1982 - 2007, FLAC (tracks), lossless

(Free Jazz) Anthony Braxton - Solo (Pisa) 1982 - 2007, FLAC (tracks), lossless
Треклист:
Anthony Braxton / Solo (Pisa) 1982
Жанр: Free Jazz
Страна-производитель диска: UK
Год издания: 2007
Издатель (лейбл): Golden Years Of New Jazz
Номер по каталогу: GY 28
Аудиокодек: FLAC (*.flac)
Тип рипа: tracks
Битрейт аудио: lossless
Продолжительность: 55:07
Источник (релизер): what.cd (gwohl)
Наличие сканов в содержимом раздачи: нет
Треклист:
1 Composition 26c 4:45
2 Composition 106c 4:25
3 Composition 106n 3:41
4 Composition 26g + 99g 4:20
5 Composition 118a 4:22
6 Alone Together
Composed By – Schwartz*, Dietz* 5:17
7 Composition 77e 4:16
8 'Round 'Bout Midnight
Composed By – Hanighen*, Williams*, Monk* 4:45
9 Composition 119j 4:12
10 You Go To My Head
Composed By – Gillespie*, Coots* 3:49
11 Giant Steps
Composed By – Coltrane* 11:11
 
Лог создания рипа
Exact Audio Copy V1.0 beta 3 from 29. August 2011
EAC extraction logfile from 18. September 2012, 19:15
Anthony Braxton / Solo (Pisa) 1982
Used drive : hp DVD A DH16ABLH Adapter: 1 ID: 0
Read mode : Secure
Utilize accurate stream : Yes
Defeat audio cache : No
Make use of C2 pointers : No
Read offset correction : 6
Overread into Lead-In and Lead-Out : No
Fill up missing offset samples with silence : Yes
Delete leading and trailing silent blocks : No
Null samples used in CRC calculations : Yes
Used interface : Native Win32 interface for Win NT & 2000
Gap handling : Not detected, thus appended to previous track
Used output format : User Defined Encoder
Selected bitrate : 768 kBit/s
Quality : High
Add ID3 tag : No
Command line compressor : C:\Program Files (x86)\Exact Audio Copy\FLAC\FLAC.EXE
Additional command line options : -6 -V -T "ARTIST=%artist%" -T "TITLE=%title%" -T "ALBUM=%albumtitle%" -T "DATE=%year%" -T "TRACKNUMBER=%tracknr%" -T "GENRE=%genre%" -T "COMMENT=%comment%" -T "BAND=%albuminterpret%" -T "ALBUMARTIST=%albuminterpret%" -T "COMPOSER=%composer%" %haslyrics%--tag-from-file=LYRICS="%lyricsfile%"%haslyrics% -T "DISCNUMBER=%cdnumber%" -T "TOTALDISCS=%totalcds%" -T "TOTALTRACKS=%numtracks%" %hascover%--picture="%coverfile%"%hascover% %source% -o %dest%
TOC of the extracted CD
Track | Start | Length | Start sector | End sector
---------------------------------------------------------
1 | 0:00.00 | 4:45.45 | 0 | 21419
2 | 4:45.45 | 4:25.18 | 21420 | 41312
3 | 9:10.63 | 3:41.58 | 41313 | 57945
4 | 12:52.46 | 4:20.01 | 57946 | 77446
5 | 17:12.47 | 4:22.53 | 77447 | 97149
6 | 21:35.25 | 5:17.32 | 97150 | 120956
7 | 26:52.57 | 4:16.02 | 120957 | 140158
8 | 31:08.59 | 4:45.17 | 140159 | 161550
9 | 35:54.01 | 4:12.30 | 161551 | 180480
10 | 40:06.31 | 3:49.36 | 180481 | 197691
11 | 43:55.67 | 11:11.33 | 197692 | 248049
Track 1
Filename C:\Users\agrathwohl\Downloads\EAC\Solo Pisa 1982\Anthony Braxton - Solo (Pisa) 1982 - 01 - Composition 26c.wav
Peak level 74.3 %
Extraction speed 6.6 X
Track quality 100.0 %
Copy CRC E333B02F
Track not present in AccurateRip database
Copy OK
Track 2
Filename C:\Users\agrathwohl\Downloads\EAC\Solo Pisa 1982\Anthony Braxton - Solo (Pisa) 1982 - 02 - Composition 106c.wav
Peak level 96.6 %
Extraction speed 7.9 X
Track quality 99.9 %
Copy CRC B33A37A2
Track not present in AccurateRip database
Copy OK
Track 3
Filename C:\Users\agrathwohl\Downloads\EAC\Solo Pisa 1982\Anthony Braxton - Solo (Pisa) 1982 - 03 - Composition 106n.wav
Peak level 51.2 %
Extraction speed 8.4 X
Track quality 99.9 %
Copy CRC 561E3DE2
Track not present in AccurateRip database
Copy OK
Track 4
Filename C:\Users\agrathwohl\Downloads\EAC\Solo Pisa 1982\Anthony Braxton - Solo (Pisa) 1982 - 04 - Composition 26g +99g.wav
Peak level 70.4 %
Extraction speed 9.5 X
Track quality 100.0 %
Copy CRC 2F30E7D9
Track not present in AccurateRip database
Copy OK
Track 5
Filename C:\Users\agrathwohl\Downloads\EAC\Solo Pisa 1982\Anthony Braxton - Solo (Pisa) 1982 - 05 - Composition 118a.wav
Peak level 72.8 %
Extraction speed 10.1 X
Track quality 100.0 %
Copy CRC A69E2BC2
Track not present in AccurateRip database
Copy OK
Track 6
Filename C:\Users\agrathwohl\Downloads\EAC\Solo Pisa 1982\Anthony Braxton - Solo (Pisa) 1982 - 06 - Alone Together.wav
Peak level 61.3 %
Extraction speed 10.6 X
Track quality 100.0 %
Copy CRC 5E863543
Track not present in AccurateRip database
Copy OK
Track 7
Filename C:\Users\agrathwohl\Downloads\EAC\Solo Pisa 1982\Anthony Braxton - Solo (Pisa) 1982 - 07 - Composition 77e.wav
Peak level 90.1 %
Extraction speed 11.3 X
Track quality 100.0 %
Copy CRC EA5C5E8F
Track not present in AccurateRip database
Copy OK
Track 8
Filename C:\Users\agrathwohl\Downloads\EAC\Solo Pisa 1982\Anthony Braxton - Solo (Pisa) 1982 - 08 - 'Round 'Bout Midnight.wav
Peak level 54.2 %
Extraction speed 11.6 X
Track quality 100.0 %
Copy CRC CA98ABC2
Track not present in AccurateRip database
Copy OK
Track 9
Filename C:\Users\agrathwohl\Downloads\EAC\Solo Pisa 1982\Anthony Braxton - Solo (Pisa) 1982 - 09 - Composition 119j.wav
Peak level 72.6 %
Extraction speed 12.3 X
Track quality 100.0 %
Copy CRC 2A9E1151
Track not present in AccurateRip database
Copy OK
Track 10
Filename C:\Users\agrathwohl\Downloads\EAC\Solo Pisa 1982\Anthony Braxton - Solo (Pisa) 1982 - 10 - You Go to My Head.wav
Peak level 65.6 %
Extraction speed 12.4 X
Track quality 100.0 %
Copy CRC 085E3119
Track not present in AccurateRip database
Copy OK
Track 11
Filename C:\Users\agrathwohl\Downloads\EAC\Solo Pisa 1982\Anthony Braxton - Solo (Pisa) 1982 - 11 - Giant Steps.wav
Peak level 78.2 %
Extraction speed 13.7 X
Track quality 100.0 %
Copy CRC B509199B
Track not present in AccurateRip database
Copy OK
None of the tracks are present in the AccurateRip database
No errors occurred
End of status report
Доп. информация: Recorded live in Pisa, Italy, 1982.
 
Об альбоме (сборнике)
These recently discovered tapes offer more of Anthony Braxton’s solo alto sax performances witnessed on his Koln (1978) and Milano Volumes I & II (1979) live recordings. A revolutionary and somewhat iconoclastic musician, Braxton’s penchant for surging into the freer realm is counterbalanced for his love of modern mainstream jazz, which are facets of his persona that his presented here.
Few artists possess the resources to sustain an audience’s attention by going it alone. And of course, Braxton counters that notion with alto sax in hand and a razor-sharp wit. The festivities commence with a string of free-form type compositions. He fuses buzzing and fluttering notes with geometrically-devised themes, abetted by his polytonal voicings and soul-stirring choruses. It’s as though every piece communicates an involved plot. And in some spots the artist infuses a riotous progression of events with gruff-toned lines and intense, intra-conversational style dialogues. But on standards such as "Alone Together," Braxton’s bluesy gait, buoyant swing vamps and acute use of vibrato serves as a contrast to the frantic gushes heard on the following piece "Composition 77e."
The saxophonist tempers the flow with a bop-ish spin on Thelonious Monk’s "Round ‘Bout Midnight," while dissecting John Coltrane’s "Giant Steps." Overall, this program should enthrall Braxton’s legion of admirers while residing as a significant edition to his extensive discography. (Essential.... )
 
Состав
Alto Saxophone – Anthony Braxton
Any questions -> support@pro-jazz.com. По всем вопросам пишите -> support@pro-jazz.com
04:05
250
Нет комментариев. Ваш будет первым!