Поиск

(Free Jazz) Anthony Braxton - Quartet (Dortmund) 1976 - 1976, APE (image + .cue), lossless

Треклист:
Anthony Braxton - Quartet (Dortmund) 1976
Страна: Switzerland
Жанр: Free Jazz
Год выпуска: 1976
Формат: APE (image + .cue)
Битрейт аудио: lossless
Продолжительность: 56:34
Трэклист:
1 Composition 40F / Composition 23J (26:10)
2 Composition 40 (O) (6:40)
3 Composition 6C (9:48)
4 Composition 40B (13:58)
Доп. информация: Recorded live at Jazzfestival "Jazz Life" Dortmund on October 31, 1976 by WDR Köln
 
Отчёт EAC
Exact Audio Copy V0.99 prebeta 3 from 28. July 2007
Отчёт EAC об извлечении, выполненном 24. февраля 2008, 0:29
Anthony Braxton / Quartet (Dortmund) 1976
Дисковод: _NEC DVD_RW ND-4570A Adapter: 1 ID: 0
Режим чтения : Достоверность
Использование точного потока : Да
Отключение кэша аудио : Да
Использование указателей C2 : Нет
Коррекция смещения при чтении : 48
Способность читать области Lead-in и Lead-out : Нет
Заполнение пропущенных сэмплов тишиной : Да
Удаление блоков с тишиной в начале и конце : Нет
При вычислениях CRC использовались нулевые сэмплы : Да
Интерфейс : Установленный внешний ASPI-интерфейс
Выходной формат : Внутренние WAV-операции
Формат сэмплов : 44.100 Гц; 16 бит; стерео
TOC извлечённого CD
Трек | Старт | Длительность | Начальный сектор | Конечный сектор
---------------------------------------------------------------------
1 | 0:00.00 | 26:10.50 | 0 | 117799
2 | 26:10.50 | 6:40.00 | 117800 | 147799
3 | 32:50.50 | 9:47.50 | 147800 | 191874
4 | 42:38.25 | 13:57.50 | 191875 | 254699
Характеристики диапазона извлечения и сообщения об ошибках
Выбранный диапазон
Имя файла D:\Music\Lossless Collection\A\Anthony Braxton 1976 Quartet (Dortmund) 1976\Anthony Braxton - Quartet (Dortmund) 1976.wav
Пиковый уровень 92.9 %
Качество диапазона 100.0 %
CRC копии 9FE4804D
Копирование... OK
Ошибок не произошло
Конец отчёта
 
Отчёт Audiochecker
AUDIOCHECKER v2.0 beta (build 457) - by Dester - opdester@freemail.hu
~~~~~~~~~~~~~~~~~~~~~~~~~~~~~~~~~~
-=== DO NOT EDIT THIS FILE! ===-
Path: ...\Anthony Braxton 1976 Quartet (Dortmund) 1976
1 -=- Anthony Braxton - Quartet (Dortmund) 1976.ape -=- CDDA (99%)
184185060
Приватный:
Нет (DHT включён)
Размер:
321.15 Мб (336,745,983 байт) » файлов: 5
Участники:
0 раздают, 0 качают (0 участников всего)
Внешние участники:
1 раздают, 0 качают (1 участников всего) [ Обновить ]
Есть вопросы - пишите личное сообщение пользователю M0p94ok.
23:44
89
Нет комментариев. Ваш будет первым!