Поиск

(Free Jazz) Anthony Braxton,Evan Parker-Duo(London)(c & p Leo Records) - 1993, APE (image + .cue), lossless

Треклист:
Anthony Braxton,Evan Parker-Duo(London)(c & p Leo Records)
Страна: U.K.
Жанр: Free Jazz
Год выпуска: 1993
Формат: APE (image + .cue)
Битрейт аудио: lossless
Продолжительность: 47:34
Трэклист:
1 Parkbrax. Braxton, Parker 14:28
2 Braxpark. Braxton, Parker 6:24
3 Braxpark. Braxton, Parker 7:11
4 Braxpark. Braxton, Parker 9:36
5 Parkbrax. Braxton, Parker 10:00 Live at the Bloomsbery Theatre(London Jazz Festival)
Доп. информация: Сканы в наличии. Еще Брекстоны:
http://rutracker.org/forum/viewtopic.php?t=682437
http://rutracker.org/forum/viewtopic.php?t=682558
 
скрытый текст
Exact Audio Copy V0.99 prebeta 3 from 28. July 2007
Отчёт EAC об извлечении, выполненном 23. февраля 2008, 16:32
Anthony Braxton, Evan Parker / Duo (London) 1993
Дисковод: TEAC CD-W540E Adapter: 0 ID: 1
Режим чтения : Достоверность
Использование точного потока : Да
Отключение кэша аудио : Да
Использование указателей C2 : Нет
Коррекция смещения при чтении : 686
Способность читать области Lead-in и Lead-out : Нет
Заполнение пропущенных сэмплов тишиной : Да
Удаление блоков с тишиной в начале и конце : Нет
При вычислениях CRC использовались нулевые сэмплы : Да
Интерфейс : Установленный внешний ASPI-интерфейс
Выходной формат : Monkey's Audio Lossless Encoder v3.99 DLL
Формат сэмплов : High Lossless Compression
TOC извлечённого CD
Трек | Старт | Длительность | Начальный сектор | Конечный сектор
---------------------------------------------------------------------
1 | 0:00.32 | 14:28.03 | 32 | 65134
2 | 14:28.35 | 6:24.50 | 65135 | 93984
3 | 20:53.10 | 7:11.25 | 93985 | 126334
4 | 28:04.35 | 9:36.40 | 126335 | 169574
5 | 37:41.00 | 10:00.37 | 169575 | 214611
Характеристики диапазона извлечения и сообщения об ошибках
Выбранный диапазон
Имя файла C:\Documents and Settings\1\Рабочий стол\Anthony Braxton, Evan Parker - Duo (London) 1993.ape
Пиковый уровень 97.2 %
Качество диапазона 100.0 %
CRC теста 911A864C
CRC копии 911A864C
Копирование... OK
Ошибок не произошло
AccurateRip: сводка
Трек 1 нет в базе данных
Трек 2 нет в базе данных
Трек 3 нет в базе данных
Трек 4 нет в базе данных
Трек 5 нет в базе данных
Ни одного трека нет в базе AccurateRip
Конец отчёта
Приватный:
Нет (DHT включён)
Размер:
182.81 Мб (191,686,770 байт) » файлов: 8
Участники:
0 раздают, 0 качают (0 участников всего)
Внешние участники:
1 раздают, 0 качают (1 участников всего) [ Обновить ]
No seeders - write personal message to user M0p94ok. Нет сидеров - пишите личное сообщение пользователю M0p94ok.
23:39
60
Нет комментариев. Ваш будет первым!