Вы используете незарегистрированную версию компонента "Вкладки"!

Поиск

(free jazz) Anthony Braxton & Scott Rosenberg - Compositions/Improvisations 2000, FLAC (tracks+.cue), lossless

(free jazz) Anthony Braxton & Scott Rosenberg - Compositions/Improvisations 2000, FLAC (tracks+.cue), lossless
Треклист:


Anthony Braxton & Scott Rosenberg - Compositions/Improvisations 2000

Жанр: free jazz
Год выпуска: 2000
Издатель (лейбл):Barely Auditable Records – bar222
Формат: FLAC (tracks+.cue)
Битрейт аудио: lossless
Продолжительность 54`35
Источник: what.cd
Anthony Braxton - Soprano Saxophone, Alto Saxophone, Saxophone [C Melody Saxophone], Flute, Soprano Clarinet [Bb Clarinet], Contra-alto Clarinet [Eb Contra Alto Clarinet], Contrabass Clarinet
Scott Rosenberg - Soprano Saxophone, Alto Saxophone, Tenor Saxophone, Contrabass Clarinet

tracks

1 Statk 9:45
2 #168 6:55
3 Improvisation 1:35
4 Llnlr 6:55
5 Improvisation 2:17
6 #65 7:57
7 Improvisation 1:53
8 Eerhre 17:16


 
.log
Exact Audio Copy V1.0 beta 3 from 29. August 2011
EAC extraction logfile from 4. February 2012, 1:38
Anthony Braxton & Scott Rosenberg / Compositions Improvisations 2000
Used drive : PIONEER DVDRW DVR-K17B Adapter: 1 ID: 0
Read mode : Secure
Utilize accurate stream : Yes
Defeat audio cache : Yes
Make use of C2 pointers : No
Read offset correction : 48
Overread into Lead-In and Lead-Out : No
Fill up missing offset samples with silence : Yes
Delete leading and trailing silent blocks : No
Null samples used in CRC calculations : Yes
Used interface : Native Win32 interface for Win NT & 2000
Gap handling : Appended to previous track
Used output format : User Defined Encoder
Selected bitrate : 1024 kBit/s
Quality : High
Add ID3 tag : No
Command line compressor : C:\Program Files\Exact Audio Copy\Flac\flac.exe
Additional command line options : -8 -V -T "ARTIST=%artist%" -T "TITLE=%title%" -T "ALBUM=%albumtitle%" -T "DATE=%year%" -T "TRACKNUMBER=%tracknr%" -T "GENRE=%genre%" -T "PERFORMER=%albuminterpret%" -T "COMPOSER=%composer%" %haslyrics%--tag-from-file=LYRICS="%lyricsfile%"%haslyrics% -T "ALBUMARTIST=%albumartist%" -T "DISCNUMBER=%cdnumber%" -T "TOTALDISCS=%totalcds%" -T "TOTALTRACKS=%numtracks%" -T "COMMENT=%comment%" %source% -o %dest%
TOC of the extracted CD
Track | Start | Length | Start sector | End sector
---------------------------------------------------------
1 | 0:00.00 | 9:44.67 | 0 | 43866
2 | 9:44.67 | 6:55.37 | 43867 | 75028
3 | 16:40.29 | 1:35.05 | 75029 | 82158
4 | 18:15.34 | 6:55.30 | 82159 | 113313
5 | 25:10.64 | 2:17.15 | 113314 | 123603
6 | 27:28.04 | 7:56.65 | 123604 | 159368
7 | 35:24.69 | 1:53.44 | 159369 | 167887
8 | 37:18.38 | 17:16.38 | 167888 | 245625
Track 1
Filename H:\EAC\Anthony Braxton & Scott Rosenberg - Compositions Improvisations 2000 (2000) - FLAC\01 - statk.wav
Pre-gap length 0:00:02.00
Peak level 98.7 %
Extraction speed 2.1 X
Track quality 100.0 %
Test CRC B6F5BFD6
Copy CRC B6F5BFD6
Accurately ripped (confidence 1) [84D919E8] (AR v1)
Copy OK
Track 2
Filename H:\EAC\Anthony Braxton & Scott Rosenberg - Compositions Improvisations 2000 (2000) - FLAC\02 - #168.wav
Peak level 98.4 %
Extraction speed 2.5 X
Track quality 100.0 %
Test CRC DB90F5A7
Copy CRC DB90F5A7
Accurately ripped (confidence 1) [68814B41] (AR v1)
Copy OK
Track 3
Filename H:\EAC\Anthony Braxton & Scott Rosenberg - Compositions Improvisations 2000 (2000) - FLAC\03 - Improvisation.wav
Peak level 97.5 %
Extraction speed 2.1 X
Track quality 100.0 %
Test CRC D6A3D530
Copy CRC D6A3D530
Accurately ripped (confidence 1) [8AFB5F37] (AR v1)
Copy OK
Track 4
Filename H:\EAC\Anthony Braxton & Scott Rosenberg - Compositions Improvisations 2000 (2000) - FLAC\04 - llnlr.wav
Peak level 98.8 %
Extraction speed 2.7 X
Track quality 100.0 %
Test CRC 75A9082E
Copy CRC 75A9082E
Accurately ripped (confidence 1) [6BA280A3] (AR v1)
Copy OK
Track 5
Filename H:\EAC\Anthony Braxton & Scott Rosenberg - Compositions Improvisations 2000 (2000) - FLAC\05 - Improvisation.wav
Peak level 97.5 %
Extraction speed 2.5 X
Track quality 100.0 %
Test CRC CCAF05C7
Copy CRC CCAF05C7
Accurately ripped (confidence 1) [FFF537FF] (AR v1)
Copy OK
Track 6
Filename H:\EAC\Anthony Braxton & Scott Rosenberg - Compositions Improvisations 2000 (2000) - FLAC\06 - #65.wav
Peak level 98.8 %
Extraction speed 3.1 X
Track quality 100.0 %
Test CRC 4DC4CC77
Copy CRC 4DC4CC77
Accurately ripped (confidence 1) [3909716F] (AR v1)
Copy OK
Track 7
Filename H:\EAC\Anthony Braxton & Scott Rosenberg - Compositions Improvisations 2000 (2000) - FLAC\07 - Improvisation.wav
Peak level 97.5 %
Extraction speed 2.6 X
Track quality 100.0 %
Test CRC 34B2F7B4
Copy CRC 34B2F7B4
Accurately ripped (confidence 1) [CA4B7115] (AR v1)
Copy OK
Track 8
Filename H:\EAC\Anthony Braxton & Scott Rosenberg - Compositions Improvisations 2000 (2000) - FLAC\08 - eerhre.wav
Peak level 98.6 %
Extraction speed 3.4 X
Track quality 99.9 %
Test CRC A498FD40
Copy CRC A498FD40
Accurately ripped (confidence 1) [9CF94509] (AR v1)
Copy OK
All tracks accurately ripped
No errors occurred
End of status report
---- CUETools DB Plugin V2.1.3
[CTDB TOCID: m8jL8yGPPC9df2EIvkvU89plhh4-] disk not present in database, Submit result: m8jL8yGPPC9df2EIvkvU89plhh4- has been uploaded
==== Log checksum 31854A2F1781587A2D862AA69A7461223141D2345233016EBABD3545A714D9ED ====
 
.cue
REM GENRE Jazz
REM DATE 2000
REM DISCID 510CCB08
REM COMMENT "ExactAudioCopy v1.0b3"
FILE "01 - statk.wav" WAVE
TRACK 01 AUDIO
INDEX 01 00:00:00
FILE "02 - #168.wav" WAVE
TRACK 02 AUDIO
INDEX 01 00:00:00
FILE "03 - Improvisation.wav" WAVE
TRACK 03 AUDIO
INDEX 01 00:00:00
FILE "04 - llnlr.wav" WAVE
TRACK 04 AUDIO
INDEX 01 00:00:00
FILE "05 - Improvisation.wav" WAVE
TRACK 05 AUDIO
INDEX 01 00:00:00
FILE "06 - #65.wav" WAVE
TRACK 06 AUDIO
INDEX 01 00:00:00
FILE "07 - Improvisation.wav" WAVE
TRACK 07 AUDIO
INDEX 01 00:00:00
FILE "08 - eerhre.wav" WAVE
TRACK 08 AUDIO
INDEX 01 00:00:00

другие релизы
Any questions -> support@pro-jazz.com. По всем вопросам пишите -> support@pro-jazz.com
07:12
217
Нет комментариев. Ваш будет первым!