Вы используете незарегистрированную версию компонента "Вкладки"!

Поиск

(Free Jazz) Alexandra Grimal trio - Shape. Live at the Sunset - 2008, FLAC (image+.cue), lossless

(Free Jazz) Alexandra Grimal trio - Shape. Live at the Sunset - 2008, FLAC (image+.cue), lossless
Треклист:
Alexandra Grimal trio / Shape. Live at the Sunset
Жанр: Free Jazz
Страна-производитель диска: France
Год издания: 2008
Издатель (лейбл): Marge
Номер по каталогу: 42
Аудиокодек: FLAC (*.flac)
Тип рипа: image+.cue
Битрейт аудио: lossless
Продолжительность: 70:28
Источник (релизер): cd
Наличие сканов в содержимом раздачи: нет
Треклист:
1 mouvances
2 en silence
3 le sang n'est pas bleu
4 forets aleatoires
5 petite plage
6 texture
7 suite du temps absorbe
 
Лог создания рипа
Exact Audio Copy V1.0 beta 2 from 29. April 2011
EAC extraction logfile from 24. September 2012, 8:58
Alexandra Grimal trio / Shape.Live at the Sunset
Used drive : Optiarc DVD RW AD-7170A Adapter: 0 ID: 0
Read mode : Secure
Utilize accurate stream : Yes
Defeat audio cache : Yes
Make use of C2 pointers : No
Read offset correction : 48
Overread into Lead-In and Lead-Out : No
Fill up missing offset samples with silence : Yes
Delete leading and trailing silent blocks : No
Null samples used in CRC calculations : Yes
Used interface : Native Win32 interface for Win NT & 2000
Used output format : User Defined Encoder
Selected bitrate : 320 kBit/s
Quality : High
Add ID3 tag : No
Command line compressor : C:\Program Files\Exact Audio Copy\Flac\flac.exe
Additional command line options : -V -8 -T "Date=%year%" -T "Genre=%genre%" %source%
TOC of the extracted CD
Track | Start | Length | Start sector | End sector
---------------------------------------------------------
1 | 0:00.00 | 15:17.21 | 0 | 68795
2 | 15:17.21 | 1:05.47 | 68796 | 73717
3 | 16:22.68 | 19:59.09 | 73718 | 163651
4 | 36:22.02 | 5:09.69 | 163652 | 186895
5 | 41:31.71 | 5:34.44 | 186896 | 211989
6 | 47:06.40 | 1:40.47 | 211990 | 219536
7 | 48:47.12 | 21:41.10 | 219537 | 317121
Range status and errors
Selected range
Filename K:\ЕАС\Alexandra Grimal trio - Shape.Live at the Sunset.wav
Peak level 98.3 %
Extraction speed 2.1 X
Range quality 100.0 %
Test CRC 1018240A
Copy CRC 1018240A
Copy OK
No errors occurred
AccurateRip summary
Track 1 not present in database
Track 2 not present in database
Track 3 not present in database
Track 4 not present in database
Track 5 not present in database
Track 6 not present in database
Track 7 not present in database
None of the tracks are present in the AccurateRip database
End of status report
==== Log checksum 1395AC61B7C50942D9052426EC8AC1CA48F01618B4630544751A42EA6C24A1AE ====
 
Содержание индексной карты (.CUE)
REM GENRE Jazz
REM DATE 2008
REM DISCID 75108407
REM COMMENT "ExactAudioCopy v1.0b2"
PERFORMER "Alexandra Grimal trio"
TITLE "Shape.Live at the Sunset"
FILE "Alexandra Grimal trio - Shape.Live at the Sunset.flac" WAVE
TRACK 01 AUDIO
TITLE "mouvances"
PERFORMER "Alexandra Grimal trio"
ISRC 000000000000
INDEX 01 00:00:00
TRACK 02 AUDIO
TITLE "en silence"
PERFORMER "Alexandra Grimal trio"
ISRC 000000000000
INDEX 01 15:17:21
TRACK 03 AUDIO
TITLE "le sang n'est pas bleu"
PERFORMER "Alexandra Grimal trio"
ISRC 000000000000
INDEX 01 16:22:68
TRACK 04 AUDIO
TITLE "forets aleatoires"
PERFORMER "Alexandra Grimal trio"
ISRC 000000000000
INDEX 01 36:22:02
TRACK 05 AUDIO
TITLE "petite plage"
PERFORMER "Alexandra Grimal trio"
ISRC 000000000000
INDEX 01 41:31:71
TRACK 06 AUDIO
TITLE "texture"
PERFORMER "Alexandra Grimal trio"
ISRC 000000000000
INDEX 01 47:06:40
TRACK 07 AUDIO
TITLE "suite du temps absorbe"
PERFORMER "Alexandra Grimal trio"
ISRC 000000000000
INDEX 01 48:47:12
Доп. информация: Enregistre en public le 30 juin 2008 au Sunset a Paris
 
Состав
Alexandra Grimal (saxophones tenor & soprano)
Antonin Rayon (orgue Hammond & Clavinet)
Emmanuel Scarpa (batterie)
Any questions -> support@pro-jazz.com. По всем вопросам пишите -> support@pro-jazz.com
03:58
159
Нет комментариев. Ваш будет первым!