Вы используете незарегистрированную версию компонента "Вкладки"!

Поиск

(Free Jazz) Albert Ayler - Holy Ghost. Rare & unissued recordings (1962-1970) 10cd - 2004, FLAC (tracks+.cue), lossless

(Free Jazz) Albert Ayler - Holy Ghost. Rare & unissued recordings (1962-1970) 10cd - 2004, FLAC (tracks+.cue), lossless
Треклист:
Albert Ayler - Holy Ghost
Rare & unissued recordings (1962-1970)
Жанр: Free Jazz
Год выпуска диска: 2004
Производитель диска: Revenant Records (Rev 213)
Источник: вот.сиди (heureka88)
Аудио кодек: FLAC
Тип рипа: tracks+.cue
Битрейт аудио: lossless
Продолжительность: 8:07:00 (музыка) + 2:15:06 (интервью)
 
музыка
Albert Ayler soprano, alto & tenor saxophones, vocal
 
1 - 47:59
1.1 Sonnymoon for Two 8:29
1.2 Summertime 6:53
1.3 On Green Dolphin Street 3:26
1.4 Spoken Introduction 0:42
1.5 Four 21:46
1.6 Spirits [Incomplete] 6:38
1.7 Saints 10:32
1.8 Ghosts [Incomplete] 10:56
1.1 - 1.3 Herbert Katz Quintet :
Heikki Annala bass
Martti Äijänen drums
Herbert Katz guitar
Teuvo Suojärvi piano
1.4 -1.5 Cecil Taylor Quartet:
Cecil Taylor piano
Jimmy Lyons alto saxophone
Sunny Murray drums
1.6 - 1.8 Albert Ayler Trio:
Gary Peacock bass
Sunny Murray drums
 
2 - 1:10:26
2.1 The Wizard 6:51
2.2 Children 9:05
2.3 Spirits [Theme] 0:28
2.4 Albert Ayler Quartet - Spoken Radio Introduction 0:55
2.5 Spirits 8:43
2.6 Vibrations 8:23
2.7 [Tune Q] 8:59
2.8 Mothers 7:53
2.9 Children 8:38
2.10 Spirits [Theme] 1:25
2.11 Burton Greene Quintet - [Untitled] (Collective) 8:55
2.1 - 2.3 Albert Ayler Trio:
Gary Peacock bass
Sunny Murray drums
2.5 - 2.10 Albert Ayler Quartet:
Gary Peacock bass
Sunny Murray drums
Don Cherry cornet
2.11 Burton Greene Quintet:
Steve Tintweiss bass
Rashied Ali drums
Burton Greene piano
Frank Smith tenor saxophone
 
3 - 1:19:25
3.1 Albert Ayler Quintet - Spoken Introduction by Peter Bergman 1:03
3.2 Spirits Rejoice 4:39
3.3 D.C. 5:58
3.4 [Untitled Minor Waltz] 7:04
3.5 Our Prayer 6:33
3.6 Spoken Introduction by Peter Bergman 1:13
3.7 [F# Tune] 15:20
3.8 Ghosts 6:32
3.9 Spirits Rejoice 6:31
3.10 Prophet / Ghosts / Spiritual Bells 14:33
3.11 Our Prayer / Spirits Rejoice 9:43
Albert Ayler Quintet:
Mutawef Shaheed bass
Ronald Shannon Jackson drums
Donald Ayler trumpet
Michel Samson violin
 
4 - 57:55
4.1 [Untitled] / Truth Is Marching In 15:43
4.2 Spirits 9:16
4.3 Zion Hill 12:40
4.4 Spirits 7:00
4.5 Spiritual Bells 3:48
4.6 [F# Tune] 9:18
Albert Ayler Quintet:
Mutawef Shaheed bass
Ronald Shannon Jackson drums
Donald Ayler trumpet
Frank Wrigh tenoк saxophone
 
5 - 1:03:54
5.1 Albert Ayler Quintet - Concert Announcement By Ralf Schulte-Bahrenberg 1:10
5.2 Ghosts / Bells 11:15
5.3 Truth Is Marching In 7:07
5.4 Omega 3:48
5.5 Our Prayer 4:39
5.6 Spoken Introduction By Peter de Wit 1:25
5.7 Truth Is Marching In 11:14
5.8 Bells 5:35
5.9 Spirits Rejoice 10:51
5.10 "Free Spiritual Music" Part IV 6:44
Albert Ayler Quintet:
Bill Folwell bass
Beaver Harris drums
Donald Ayler trumpet
Michel Samson violin
 
6 - 1:17:25
6.1 Truth Is Marching In / Omega 9:00
6.2 Japan / Universal Indians 5:41
6.3 Our Prayer 8:19
6.4 Love Cry / Truth Is Marching In/Our Prayer 6:24
6.5 Venus / Upper And Lower Egypt 22:59
6.6 [Blues] 6:04
6.7 [Sermon] 0:50
6.8 Thank God For Women 10:16
6.9 New Ghosts [Demo Fragments] 7:10
6.1 - 6.3 Albert Ayler Quintet:
Bill Folwell bass
Milford Graves drums
Donald Ayler trumpet
Michel Samson violin
6.4 Albert Ayler Quartet:
Richard Davis bass
Milford Graves drums
Donald Ayler trumpet
6.5 Pharoah Sanders:
Sirone bass
Roger Blank drums
Dave Burrell piano
Pharoah Sanders tenor saxophone
Chris Capers trumpet
6.6 - 6.9 Albert Ayler:
Bill Folwell bass
Bernard Purdie drums
Call Cobbs piano, harpsichord [rocksichord]
Vivian Bostic vocals
Mary Parks vocals, tambourine
 
7 - 1:00:13
7.1 Don Ayler Sextet - Prophet John 10:53
7.2 Don Ayler Sextet - Judge Ye Not 10:16
7.3 Mothers / Children 8:42
7.4 [Untitled, Incomplete] 14:14
7.5 [C Minor] 5:21
7.6 [F Minor / C Minor] 10:36
7.1 - 7.2 Don Ayler Sextet:
Ibrahim Wahen bass
Muhammed Ali drums
Richard Johnson piano
Sam Rivers tenor saxophone
Donald Ayler trumpet
7.3 - 7.6 Albert Ayler Quartet :
Steve Tintweiss bass
Allen Blairman drums
Call Cobbs piano, harpsichord [rocksichord]
 
интервью
 
8 - 55:26
 
Ayler Interview with Birger Jørgensen Pt.1
1. travel and plans (1:50)
2. Holbaek (0:38)
3. the New Blues (1:33)
4. Christmastime stateside (1:13)
 
Ayler Interview with Birger Jørgensen Pt.2
5. a great chance (1:34)
6. traveling and Coltrane (1:00)
7. drummers and Sunny Murray (1:41)
8. a job to do (1:06)
9. France 19700727 - birth, family, first music (3:08)
 
Ayler Interview with Daniel Caux
10. academy, the road, school (0:57)
11. young professional and Army (5:39)
12. Sweden (4:39)
13. New York (0:48)
14. 1964 (1:25)
15. frustration, sources (3:39)
16. 1966 tour and Coltrane (3:15)
17. Impulse and Mary Maria (3:26)
18. the artist's life (1:30)
19. question: LeRoi Jones (0:46)
20. question: "For John Coltrane" (1:09)
21. question: socio-political connections (3:18)
22. question: instrumentation, engineering (4:15)
23. choosing the players (6:45)
 
9 - 1:19:40
 
Ayler Interview with Kiyoshi Koyama
1. current activity (2:02)
2. Antibes (1:06)
3. Coltrane's funeral (1:01)
4. clubs (3:39)
5. ahead of my time (1:41)
6. home lives: Brooklyn and Cleveland (1:27)
7. Impulse, pt. 1: hippies (1:20)
8. "space music" (1:07)
9. Don (0:45)
10. "Thank God for Women" (0:46)
11. blues & rhythm (1:17)
12. copying my records (2:00)
13. Impulse, pt. 2: New Grass (2:17)
14. tone and "vibration" (1:07)
15. Rollins, Coleman and Coltrane (4:08)
16. Maeght group (0:56)
17. serenity of life (0:36)
18. childhood memories, pt. 1 (1:59)
19. [Blairman enters] (0:34)
20. early professional career (1:02)
21. childhood memories, pt. 2 (1:08)
22. Don's music (3:46)
23. "I Love America" and youth (1:05)
24. Mary and golf (0:37)
25. early relationships and Mary Maria (1:02)
26. Japan work and warm weather (4:01)
27. play solo (0:24)
28. naming tunes (1:22)
29. Charles Ives (0:25)
30. influences (1:44)
31. practicing (1:09)
32. The Healing Force (0:51)
33. diet and America (2:07)
34. defining "improvisation" (0:44)
35. Sonny Rollins, reactions, and Miles Davis (2:42)
36. Newport '67 (2:29)
37. New York: keeping to oneself [Mary Maria joins] (0:43)
 
Don and Mocqui Cherry Interview with Daniel Caux
38. Paris 1971 - Don and Mocqui interview with Daniel Caux (22:11)
 
бонус
 
10 - 7:52
10.1 Tenderly 4:36
10.2 Leap Frog 3:16
US Army Band featuring Albert Ayler
 
Отчёт XLD
 
1
X Lossless Decoder version 20091202 (114.5)
XLD extraction logfile from 2009-12-03 13:35:56 +0100
Albert Ayler / Holy Ghost CD1
Used drive : MATSHITA DVD-R UJ-857E (revision ZF1E)
Use cdparanoia mode : YES (CDParanoia III 10.2 engine)
Disable audio cache : OK for the drive with cache less than 2750KB
Make use of C2 pointers : NO
Read offset correction : 102
Max retry count : 100
TOC of the extracted CD
Track | Start | Length | Start sector | End sector
---------------------------------------------------------
1 | 00:00:00 | 08:32:33 | 0 | 38432
2 | 08:32:33 | 06:56:49 | 38433 | 69681
3 | 15:29:07 | 03:33:46 | 69682 | 85702
4 | 19:02:53 | 00:41:53 | 85703 | 88830
5 | 19:44:31 | 21:50:26 | 88831 | 187106
6 | 41:34:57 | 06:44:46 | 187107 | 217452
7 | 48:19:28 | 10:34:58 | 217453 | 265060
8 | 58:54:11 | 10:55:44 | 265061 | 314229
All Tracks
Album gain : -1.04 dB
Peak : 0.955231
Track 01
Filename : /Users/RIAA/Albert Ayler - Holy Ghost - Rare & Unissued Recordings (1960-1972) [2004]/CD1/01 Sonnymoon for Two.flac
Track gain : 0.83 dB
Peak : 0.776367
CRC32 hash (test run) : 842DC518
CRC32 hash : 842DC518
CRC32 hash (skip zero) : 656FF94D
AccurateRip signature : A003EE9A
->Accurately ripped! (confidence 3)
Statistics
Read error : 0
Skipped (treated as error) : 0
Edge jitter error (maybe fixed) : 0
Atom jitter error (maybe fixed) : 0
Drift error (maybe fixed) : 0
Dropped bytes error (maybe fixed) : 0
Duplicated bytes error (maybe fixed) : 0
Track 02
Filename : /Users/RIAA/Albert Ayler - Holy Ghost - Rare & Unissued Recordings (1960-1972) [2004]/CD1/02 Summertime.flac
Track gain : 2.67 dB
Peak : 0.535950
CRC32 hash (test run) : 38581FEE
CRC32 hash : 38581FEE
CRC32 hash (skip zero) : 9AF216E1
AccurateRip signature : E19022C1
->Accurately ripped! (confidence 3)
Statistics
Read error : 0
Skipped (treated as error) : 0
Edge jitter error (maybe fixed) : 0
Atom jitter error (maybe fixed) : 0
Drift error (maybe fixed) : 0
Dropped bytes error (maybe fixed) : 0
Duplicated bytes error (maybe fixed) : 0
Track 03
Filename : /Users/RIAA/Albert Ayler - Holy Ghost - Rare & Unissued Recordings (1960-1972) [2004]/CD1/03 On Green Dolphin Street.flac
Track gain : 0.14 dB
Peak : 0.711182
CRC32 hash (test run) : CDB40C85
CRC32 hash : CDB40C85
CRC32 hash (skip zero) : 25CD8946
AccurateRip signature : DBFC0CA1
->Accurately ripped! (confidence 3)
Statistics
Read error : 0
Skipped (treated as error) : 0
Edge jitter error (maybe fixed) : 0
Atom jitter error (maybe fixed) : 0
Drift error (maybe fixed) : 0
Dropped bytes error (maybe fixed) : 0
Duplicated bytes error (maybe fixed) : 0
Track 04
Filename : /Users/RIAA/Albert Ayler - Holy Ghost - Rare & Unissued Recordings (1960-1972) [2004]/CD1/04 Spoken Introduction.flac
Track gain : 5.19 dB
Peak : 0.398529
CRC32 hash (test run) : B00D8FDC
CRC32 hash : B00D8FDC
CRC32 hash (skip zero) : 6637DA3D
AccurateRip signature : 74E5554A
->Accurately ripped! (confidence 3)
Statistics
Read error : 0
Skipped (treated as error) : 0
Edge jitter error (maybe fixed) : 0
Atom jitter error (maybe fixed) : 0
Drift error (maybe fixed) : 0
Dropped bytes error (maybe fixed) : 0
Duplicated bytes error (maybe fixed) : 0
Track 05
Filename : /Users/RIAA/Albert Ayler - Holy Ghost - Rare & Unissued Recordings (1960-1972) [2004]/CD1/05 Four.flac
Track gain : -0.88 dB
Peak : 0.715454
CRC32 hash (test run) : CC2AA898
CRC32 hash : CC2AA898
CRC32 hash (skip zero) : 8EE13D77
AccurateRip signature : 0EE816C4
->Accurately ripped! (confidence 3)
Statistics
Read error : 0
Skipped (treated as error) : 0
Edge jitter error (maybe fixed) : 0
Atom jitter error (maybe fixed) : 0
Drift error (maybe fixed) : 0
Dropped bytes error (maybe fixed) : 0
Duplicated bytes error (maybe fixed) : 0
Track 06
Filename : /Users/RIAA/Albert Ayler - Holy Ghost - Rare & Unissued Recordings (1960-1972) [2004]/CD1/06 Spirits [incomplete].flac
Track gain : -0.90 dB
Peak : 0.803375
CRC32 hash (test run) : D306A689
CRC32 hash : D306A689
CRC32 hash (skip zero) : A78FE095
AccurateRip signature : D9DE905B
->Accurately ripped! (confidence 3)
Statistics
Read error : 0
Skipped (treated as error) : 0
Edge jitter error (maybe fixed) : 0
Atom jitter error (maybe fixed) : 0
Drift error (maybe fixed) : 0
Dropped bytes error (maybe fixed) : 0
Duplicated bytes error (maybe fixed) : 0
Track 07
Filename : /Users/RIAA/Albert Ayler - Holy Ghost - Rare & Unissued Recordings (1960-1972) [2004]/CD1/07 Saints.flac
Track gain : -1.33 dB
Peak : 0.954865
CRC32 hash (test run) : 1C62A6F4
CRC32 hash : 1C62A6F4
CRC32 hash (skip zero) : D1840CF1
AccurateRip signature : 1AB148E1
->Accurately ripped! (confidence 3)
Statistics
Read error : 0
Skipped (treated as error) : 0
Edge jitter error (maybe fixed) : 0
Atom jitter error (maybe fixed) : 0
Drift error (maybe fixed) : 0
Dropped bytes error (maybe fixed) : 0
Duplicated bytes error (maybe fixed) : 0
Track 08
Filename : /Users/RIAA/Albert Ayler - Holy Ghost - Rare & Unissued Recordings (1960-1972) [2004]/CD1/08 Ghosts [incomplete].flac
Track gain : -2.84 dB
Peak : 0.955231
CRC32 hash (test run) : 9F7A3DAE
CRC32 hash : 9F7A3DAE
CRC32 hash (skip zero) : 07C9AE5F
AccurateRip signature : 54AB28B9
->Accurately ripped! (confidence 2)
Statistics
Read error : 0
Skipped (treated as error) : 0
Edge jitter error (maybe fixed) : 0
Atom jitter error (maybe fixed) : 0
Drift error (maybe fixed) : 0
Dropped bytes error (maybe fixed) : 0
Duplicated bytes error (maybe fixed) : 0
No errors occurred
End of status report
 
2
X Lossless Decoder version 20091202 (114.4)
XLD extraction logfile from 2009-12-01 18:46:18 +0100
Albert Ayler / Holy Ghost CD2
Used drive : MATSHITA DVD-R UJ-857E (revision ZF1E)
Use cdparanoia mode : YES (CDParanoia III 10.2 engine)
Disable audio cache : OK for the drive with cache less than 2750KB
Make use of C2 pointers : NO
Read offset correction : 102
Max retry count : 100
TOC of the extracted CD
Track | Start | Length | Start sector | End sector
---------------------------------------------------------
1 | 00:00:00 | 06:56:07 | 0 | 31206
2 | 06:56:07 | 09:04:06 | 31207 | 72012
3 | 16:00:13 | 00:31:68 | 72013 | 74405
4 | 16:32:06 | 00:55:43 | 74406 | 78573
5 | 17:27:49 | 08:43:28 | 78574 | 117826
6 | 26:11:02 | 08:22:33 | 117827 | 155509
7 | 34:33:35 | 08:58:43 | 155510 | 195902
8 | 43:32:03 | 07:52:60 | 195903 | 231362
9 | 51:24:63 | 08:38:02 | 231363 | 270214
10 | 60:02:65 | 01:26:54 | 270215 | 276718
11 | 61:29:44 | 08:56:31 | 276719 | 316949
All Tracks
Album gain : -6.18 dB
Peak : 1.000000
Track 01
Filename : /Users/RIAA/Desktop/Ayler/CD2/01 The Wizard.flac
Track gain : -4.55 dB
Peak : 0.978699
CRC32 hash (test run) : CC57A105
CRC32 hash : CC57A105
CRC32 hash (skip zero) : 60CC9555
AccurateRip signature : C16A1ED6
->Accurately ripped! (confidence 4)
Statistics
Read error : 0
Skipped (treated as error) : 0
Edge jitter error (maybe fixed) : 0
Atom jitter error (maybe fixed) : 0
Drift error (maybe fixed) : 0
Dropped bytes error (maybe fixed) : 0
Duplicated bytes error (maybe fixed) : 0
Track 02
Filename : /Users/RIAA/Desktop/Ayler/CD2/02 Children.flac
Track gain : -5.21 dB
Peak : 1.000000
CRC32 hash (test run) : E2FB3BB1
CRC32 hash : E2FB3BB1
CRC32 hash (skip zero) : 20D62A15
AccurateRip signature : 46E1875E
->Accurately ripped! (confidence 4)
Statistics
Read error : 0
Skipped (treated as error) : 0
Edge jitter error (maybe fixed) : 0
Atom jitter error (maybe fixed) : 0
Drift error (maybe fixed) : 0
Dropped bytes error (maybe fixed) : 0
Duplicated bytes error (maybe fixed) : 0
Track 03
Filename : /Users/RIAA/Desktop/Ayler/CD2/03 Spirits [theme].flac
Track gain : -4.90 dB
Peak : 0.771210
CRC32 hash (test run) : EBACD8B9
CRC32 hash : EBACD8B9
CRC32 hash (skip zero) : 6F19EBFC
AccurateRip signature : B6E830C0
->Accurately ripped! (confidence 4)
Statistics
Read error : 0
Skipped (treated as error) : 0
Edge jitter error (maybe fixed) : 0
Atom jitter error (maybe fixed) : 0
Drift error (maybe fixed) : 0
Dropped bytes error (maybe fixed) : 0
Duplicated bytes error (maybe fixed) : 0
Track 04
Filename : /Users/RIAA/Desktop/Ayler/CD2/04 Spoken Radio Introduction.flac
Track gain : 7.98 dB
Peak : 0.415375
CRC32 hash (test run) : 44B16BD4
CRC32 hash : 44B16BD4
CRC32 hash (skip zero) : 8ACA3921
AccurateRip signature : BC87871A
->Accurately ripped! (confidence 4)
Statistics
Read error : 0
Skipped (treated as error) : 0
Edge jitter error (maybe fixed) : 0
Atom jitter error (maybe fixed) : 0
Drift error (maybe fixed) : 0
Dropped bytes error (maybe fixed) : 0
Duplicated bytes error (maybe fixed) : 0
Track 05
Filename : /Users/RIAA/Desktop/Ayler/CD2/05 Spirits.flac
Track gain : -4.17 dB
Peak : 0.822968
CRC32 hash (test run) : 2A0E9575
CRC32 hash : 2A0E9575
CRC32 hash (skip zero) : 0A5531AD
AccurateRip signature : 2B0D8739
->Accurately ripped! (confidence 4)
Statistics
Read error : 0
Skipped (treated as error) : 0
Edge jitter error (maybe fixed) : 0
Atom jitter error (maybe fixed) : 0
Drift error (maybe fixed) : 0
Dropped bytes error (maybe fixed) : 0
Duplicated bytes error (maybe fixed) : 0
Track 06
Filename : /Users/RIAA/Desktop/Ayler/CD2/06 Vibrations.flac
Track gain : -6.16 dB
Peak : 0.864288
CRC32 hash (test run) : D7E1FE1B
CRC32 hash : D7E1FE1B
CRC32 hash (skip zero) : BB32E02C
AccurateRip signature : 2B1E04D5
->Accurately ripped! (confidence 4)
Statistics
Read error : 0
Skipped (treated as error) : 0
Edge jitter error (maybe fixed) : 0
Atom jitter error (maybe fixed) : 0
Drift error (maybe fixed) : 0
Dropped bytes error (maybe fixed) : 0
Duplicated bytes error (maybe fixed) : 0
Track 07
Filename : /Users/RIAA/Desktop/Ayler/CD2/07 [tune Q].flac
Track gain : -6.96 dB
Peak : 0.898834
CRC32 hash (test run) : 97580469
CRC32 hash : 97580469
CRC32 hash (skip zero) : 4149D6DE
AccurateRip signature : BDA0EB1C
->Accurately ripped! (confidence 4)
Statistics
Read error : 0
Skipped (treated as error) : 0
Edge jitter error (maybe fixed) : 0
Atom jitter error (maybe fixed) : 0
Drift error (maybe fixed) : 0
Dropped bytes error (maybe fixed) : 0
Duplicated bytes error (maybe fixed) : 0
Track 08
Filename : /Users/RIAA/Desktop/Ayler/CD2/08 Mothers.flac
Track gain : -8.23 dB
Peak : 0.867401
CRC32 hash (test run) : 79766F63
CRC32 hash : 79766F63
CRC32 hash (skip zero) : 6602012D
AccurateRip signature : C2A88795
->Accurately ripped! (confidence 4)
Statistics
Read error : 0
Skipped (treated as error) : 0
Edge jitter error (maybe fixed) : 0
Atom jitter error (maybe fixed) : 0
Drift error (maybe fixed) : 0
Dropped bytes error (maybe fixed) : 0
Duplicated bytes error (maybe fixed) : 0
Track 09
Filename : /Users/RIAA/Desktop/Ayler/CD2/09 Children.flac
Track gain : -5.83 dB
Peak : 0.848022
CRC32 hash (test run) : C2CAB0B5
CRC32 hash : C2CAB0B5
CRC32 hash (skip zero) : 56F12F2E
AccurateRip signature : 28C0D4CB
->Accurately ripped! (confidence 4)
Statistics
Read error : 0
Skipped (treated as error) : 0
Edge jitter error (maybe fixed) : 0
Atom jitter error (maybe fixed) : 0
Drift error (maybe fixed) : 0
Dropped bytes error (maybe fixed) : 0
Duplicated bytes error (maybe fixed) : 0
Track 10
Filename : /Users/RIAA/Desktop/Ayler/CD2/10 Spirits [theme].flac
Track gain : -7.39 dB
Peak : 0.820618
CRC32 hash (test run) : B149F785
CRC32 hash : B149F785
CRC32 hash (skip zero) : 56FB4D82
AccurateRip signature : 8BC735DE
->Accurately ripped! (confidence 4)
Statistics
Read error : 0
Skipped (treated as error) : 0
Edge jitter error (maybe fixed) : 0
Atom jitter error (maybe fixed) : 0
Drift error (maybe fixed) : 0
Dropped bytes error (maybe fixed) : 0
Duplicated bytes error (maybe fixed) : 0
Track 11
Filename : /Users/RIAA/Desktop/Ayler/CD2/11 [untitled] (collective).flac
Track gain : -5.46 dB
Peak : 1.000000
CRC32 hash (test run) : DA903C4D
CRC32 hash : DA903C4D
CRC32 hash (skip zero) : F0D3480A
AccurateRip signature : 11F7288C
->Accurately ripped! (confidence 4)
Statistics
Read error : 0
Skipped (treated as error) : 0
Edge jitter error (maybe fixed) : 0
Atom jitter error (maybe fixed) : 0
Drift error (maybe fixed) : 0
Dropped bytes error (maybe fixed) : 0
Duplicated bytes error (maybe fixed) : 0
No errors occurred
End of status report
 
3
X Lossless Decoder version 20091202 (114.4)
XLD extraction logfile from 2009-12-01 20:00:08 +0100
Various Artists / Holy Ghost (disc 3)
Used drive : MATSHITA DVD-R UJ-857E (revision ZF1E)
Use cdparanoia mode : YES (CDParanoia III 10.2 engine)
Disable audio cache : OK for the drive with cache less than 2750KB
Make use of C2 pointers : NO
Read offset correction : 102
Max retry count : 100
TOC of the extracted CD
Track | Start | Length | Start sector | End sector
---------------------------------------------------------
1 | 00:00:00 | 01:02:58 | 0 | 4707
2 | 01:02:58 | 04:39:14 | 4708 | 25646
3 | 05:41:72 | 05:58:25 | 25647 | 52521
4 | 11:40:22 | 07:03:64 | 52522 | 84310
5 | 18:44:11 | 06:36:28 | 84311 | 114038
6 | 25:20:39 | 01:12:52 | 114039 | 119490
7 | 26:33:16 | 15:20:39 | 119491 | 188529
8 | 41:53:55 | 06:44:33 | 188530 | 218862
9 | 48:38:13 | 06:31:00 | 218863 | 248187
10 | 55:09:13 | 14:32:69 | 248188 | 313656
11 | 69:42:07 | 09:42:58 | 313657 | 357364
All Tracks
Album gain : -1.24 dB
Peak : 1.000000
Track 01
Filename : /Users/RIAA/Desktop/Ayler/CD3/01 [spoken introduction].flac
Track gain : 6.79 dB
Peak : 0.841553
CRC32 hash (test run) : 33B8F99B
CRC32 hash : 33B8F99B
CRC32 hash (skip zero) : 32ADEFE2
AccurateRip signature : 74D2EE93
->Accurately ripped! (confidence 4)
Statistics
Read error : 0
Skipped (treated as error) : 0
Edge jitter error (maybe fixed) : 0
Atom jitter error (maybe fixed) : 0
Drift error (maybe fixed) : 0
Dropped bytes error (maybe fixed) : 0
Duplicated bytes error (maybe fixed) : 0
Track 02
Filename : /Users/RIAA/Desktop/Ayler/CD3/02 Spirits Rejoice.flac
Track gain : -1.13 dB
Peak : 0.681396
CRC32 hash (test run) : 430EC970
CRC32 hash : 430EC970
CRC32 hash (skip zero) : B981D6FC
AccurateRip signature : BD05CF37
->Accurately ripped! (confidence 4)
Statistics
Read error : 0
Skipped (treated as error) : 0
Edge jitter error (maybe fixed) : 0
Atom jitter error (maybe fixed) : 7
Drift error (maybe fixed) : 0
Dropped bytes error (maybe fixed) : 0
Duplicated bytes error (maybe fixed) : 0
Track 03
Filename : /Users/RIAA/Desktop/Ayler/CD3/03 D.C..flac
Track gain : -2.69 dB
Peak : 1.000000
CRC32 hash (test run) : 6EBC9B05
CRC32 hash : 6EBC9B05
CRC32 hash (skip zero) : 9E265D2D
AccurateRip signature : C231A719
->Accurately ripped! (confidence 4)
Statistics
Read error : 0
Skipped (treated as error) : 0
Edge jitter error (maybe fixed) : 0
Atom jitter error (maybe fixed) : 0
Drift error (maybe fixed) : 0
Dropped bytes error (maybe fixed) : 0
Duplicated bytes error (maybe fixed) : 0
Track 04
Filename : /Users/RIAA/Desktop/Ayler/CD3/04 [untitled minor waltz].flac
Track gain : -3.11 dB
Peak : 0.840515
CRC32 hash (test run) : 95CDB366
CRC32 hash : 95CDB366
CRC32 hash (skip zero) : B3C0CB72
AccurateRip signature : 4D9C3D0D
->Accurately ripped! (confidence 4)
Statistics
Read error : 0
Skipped (treated as error) : 0
Edge jitter error (maybe fixed) : 0
Atom jitter error (maybe fixed) : 0
Drift error (maybe fixed) : 0
Dropped bytes error (maybe fixed) : 0
Duplicated bytes error (maybe fixed) : 0
Track 05
Filename : /Users/RIAA/Desktop/Ayler/CD3/05 Our Prayer.flac
Track gain : -0.26 dB
Peak : 0.854309
CRC32 hash (test run) : B8F396A2
CRC32 hash : B8F396A2
CRC32 hash (skip zero) : 29F2A44A
AccurateRip signature : DE6963F4
->Accurately ripped! (confidence 4)
Statistics
Read error : 0
Skipped (treated as error) : 0
Edge jitter error (maybe fixed) : 0
Atom jitter error (maybe fixed) : 0
Drift error (maybe fixed) : 0
Dropped bytes error (maybe fixed) : 0
Duplicated bytes error (maybe fixed) : 0
Track 06
Filename : /Users/RIAA/Desktop/Ayler/CD3/06 [spoken introduction].flac
Track gain : 14.09 dB
Peak : 0.908081
CRC32 hash (test run) : D88BF37D
CRC32 hash : D88BF37D
CRC32 hash (skip zero) : 63A64543
AccurateRip signature : 57C5A7F9
->Accurately ripped! (confidence 4)
Statistics
Read error : 0
Skipped (treated as error) : 0
Edge jitter error (maybe fixed) : 0
Atom jitter error (maybe fixed) : 0
Drift error (maybe fixed) : 0
Dropped bytes error (maybe fixed) : 0
Duplicated bytes error (maybe fixed) : 0
Track 07
Filename : /Users/RIAA/Desktop/Ayler/CD3/07 [F# tune].flac
Track gain : -1.74 dB
Peak : 0.858154
CRC32 hash (test run) : 4E982DBC
CRC32 hash : 4E982DBC
CRC32 hash (skip zero) : 7FD95A36
AccurateRip signature : D0A22F08
->Accurately ripped! (confidence 4)
Statistics
Read error : 0
Skipped (treated as error) : 0
Edge jitter error (maybe fixed) : 0
Atom jitter error (maybe fixed) : 0
Drift error (maybe fixed) : 0
Dropped bytes error (maybe fixed) : 0
Duplicated bytes error (maybe fixed) : 0
Track 08
Filename : /Users/RIAA/Desktop/Ayler/CD3/08 Ghosts.flac
Track gain : -1.87 dB
Peak : 0.786224
CRC32 hash (test run) : FF38C69D
CRC32 hash : FF38C69D
CRC32 hash (skip zero) : 2F516935
AccurateRip signature : 8F47C5BB
->Accurately ripped! (confidence 4)
Statistics
Read error : 0
Skipped (treated as error) : 0
Edge jitter error (maybe fixed) : 0
Atom jitter error (maybe fixed) : 0
Drift error (maybe fixed) : 0
Dropped bytes error (maybe fixed) : 0
Duplicated bytes error (maybe fixed) : 0
Track 09
Filename : /Users/RIAA/Desktop/Ayler/CD3/09 Spirits Rejoice.flac
Track gain : -1.00 dB
Peak : 0.616455
CRC32 hash (test run) : ED5B2087
CRC32 hash : ED5B2087
CRC32 hash (skip zero) : 41362B2B
AccurateRip signature : BA3F7E84
->Accurately ripped! (confidence 4)
Statistics
Read error : 0
Skipped (treated as error) : 0
Edge jitter error (maybe fixed) : 0
Atom jitter error (maybe fixed) : 0
Drift error (maybe fixed) : 0
Dropped bytes error (maybe fixed) : 0
Duplicated bytes error (maybe fixed) : 0
Track 10
Filename : /Users/RIAA/Desktop/Ayler/CD3/10 Prophet / Ghosts / Spiritual Bells.flac
Track gain : 0.75 dB
Peak : 0.683228
CRC32 hash (test run) : 1892135A
CRC32 hash : 1892135A
CRC32 hash (skip zero) : 52AD0913
AccurateRip signature : CB9E0059
->Accurately ripped! (confidence 4)
Statistics
Read error : 0
Skipped (treated as error) : 0
Edge jitter error (maybe fixed) : 0
Atom jitter error (maybe fixed) : 0
Drift error (maybe fixed) : 0
Dropped bytes error (maybe fixed) : 0
Duplicated bytes error (maybe fixed) : 0
Track 11
Filename : /Users/RIAA/Desktop/Ayler/CD3/11 Our Prayer / Spirits Rejoice.flac
Track gain : -0.29 dB
Peak : 0.973877
CRC32 hash (test run) : 648B72A5
CRC32 hash : 648B72A5
CRC32 hash (skip zero) : 0878C84B
AccurateRip signature : 8E40FD94
->Accurately ripped! (confidence 4)
Statistics
Read error : 0
Skipped (treated as error) : 0
Edge jitter error (maybe fixed) : 0
Atom jitter error (maybe fixed) : 0
Drift error (maybe fixed) : 0
Dropped bytes error (maybe fixed) : 0
Duplicated bytes error (maybe fixed) : 0
No errors occurred
End of status report
 
4
X Lossless Decoder version 20091202 (114.4)
XLD extraction logfile from 2009-12-01 22:32:03 +0100
Albert Ayler / Holy Ghost (disc 4)
Used drive : MATSHITA DVD-R UJ-857E (revision ZF1E)
Use cdparanoia mode : YES (CDParanoia III 10.2 engine)
Disable audio cache : OK for the drive with cache less than 2750KB
Make use of C2 pointers : NO
Read offset correction : 102
Max retry count : 100
TOC of the extracted CD
Track | Start | Length | Start sector | End sector
---------------------------------------------------------
1 | 00:00:00 | 15:40:68 | 0 | 70567
2 | 15:40:68 | 09:23:63 | 70568 | 112855
3 | 25:04:56 | 12:39:63 | 112856 | 169843
4 | 37:44:44 | 07:00:28 | 169844 | 201371
5 | 44:44:72 | 03:53:04 | 201372 | 218850
6 | 48:38:01 | 09:17:28 | 218851 | 260653
All Tracks
Album gain : -0.30 dB
Peak : 0.954712
Track 01
Filename : /Users/RIAA/Desktop/Ayler/CD4/01 [untitled] / Truth Is Marchin' In.flac
Track gain : 0.00 dB
Peak : 0.954712
CRC32 hash (test run) : BDD2E26F
CRC32 hash : BDD2E26F
CRC32 hash (skip zero) : 2C3D6C7D
AccurateRip signature : 695818D2
->Accurately ripped! (confidence 4)
Statistics
Read error : 0
Skipped (treated as error) : 0
Edge jitter error (maybe fixed) : 0
Atom jitter error (maybe fixed) : 0
Drift error (maybe fixed) : 0
Dropped bytes error (maybe fixed) : 0
Duplicated bytes error (maybe fixed) : 0
Track 02
Filename : /Users/RIAA/Desktop/Ayler/CD4/02 Spirits.flac
Track gain : 2.10 dB
Peak : 0.769623
CRC32 hash (test run) : 964D7D05
CRC32 hash : 964D7D05
CRC32 hash (skip zero) : 9E73E9B5
AccurateRip signature : 6AFCB9C6
->Accurately ripped! (confidence 4)
Statistics
Read error : 0
Skipped (treated as error) : 0
Edge jitter error (maybe fixed) : 0
Atom jitter error (maybe fixed) : 0
Drift error (maybe fixed) : 0
Dropped bytes error (maybe fixed) : 0
Duplicated bytes error (maybe fixed) : 0
Track 03
Filename : /Users/RIAA/Desktop/Ayler/CD4/03 Zion Hill.flac
Track gain : -1.21 dB
Peak : 0.953125
CRC32 hash (test run) : D21152FB
CRC32 hash : D21152FB
CRC32 hash (skip zero) : 01F6F19D
AccurateRip signature : AB16FA01
->Accurately ripped! (confidence 4)
Statistics
Read error : 0
Skipped (treated as error) : 0
Edge jitter error (maybe fixed) : 0
Atom jitter error (maybe fixed) : 0
Drift error (maybe fixed) : 0
Dropped bytes error (maybe fixed) : 0
Duplicated bytes error (maybe fixed) : 0
Track 04
Filename : /Users/RIAA/Desktop/Ayler/CD4/04 Spirits.flac
Track gain : -1.70 dB
Peak : 0.825806
CRC32 hash (test run) : 60FF2ED3
CRC32 hash : 60FF2ED3
CRC32 hash (skip zero) : 6DD01979
AccurateRip signature : F028D247
->Accurately ripped! (confidence 4)
Statistics
Read error : 0
Skipped (treated as error) : 0
Edge jitter error (maybe fixed) : 0
Atom jitter error (maybe fixed) : 0
Drift error (maybe fixed) : 0
Dropped bytes error (maybe fixed) : 0
Duplicated bytes error (maybe fixed) : 0
Track 05
Filename : /Users/RIAA/Desktop/Ayler/CD4/05 Spiritual Bells.flac
Track gain : 1.11 dB
Peak : 0.847748
CRC32 hash (test run) : 547C12DC
CRC32 hash : 547C12DC
CRC32 hash (skip zero) : 30C89BFE
AccurateRip signature : 4ECF47E6
->Accurately ripped! (confidence 4)
Statistics
Read error : 0
Skipped (treated as error) : 0
Edge jitter error (maybe fixed) : 3
Atom jitter error (maybe fixed) : 1
Drift error (maybe fixed) : 0
Dropped bytes error (maybe fixed) : 0
Duplicated bytes error (maybe fixed) : 1
Track 06
Filename : /Users/RIAA/Desktop/Ayler/CD4/06 [F# tune].flac
Track gain : -0.90 dB
Peak : 0.860626
CRC32 hash (test run) : 20BE3041
CRC32 hash : 20BE3041
CRC32 hash (skip zero) : 4698F86F
AccurateRip signature : C10C3FE9
->Accurately ripped! (confidence 3)
Statistics
Read error : 0
Skipped (treated as error) : 0
Edge jitter error (maybe fixed) : 0
Atom jitter error (maybe fixed) : 0
Drift error (maybe fixed) : 0
Dropped bytes error (maybe fixed) : 0
Duplicated bytes error (maybe fixed) : 0
No errors occurred
End of status report
 
5
X Lossless Decoder version 20091202 (114.4)
XLD extraction logfile from 2009-12-01 23:41:50 +0100
Various Artists / Holy Ghost CD5
Used drive : MATSHITA DVD-R UJ-857E (revision ZF1E)
Use cdparanoia mode : YES (CDParanoia III 10.2 engine)
Disable audio cache : OK for the drive with cache less than 2750KB
Make use of C2 pointers : NO
Read offset correction : 102
Max retry count : 100
TOC of the extracted CD
Track | Start | Length | Start sector | End sector
---------------------------------------------------------
1 | 00:00:01 | 01:09:62 | 1 | 5237
2 | 01:09:63 | 11:15:00 | 5238 | 55862
3 | 12:24:63 | 07:07:30 | 55863 | 87917
4 | 19:32:18 | 03:48:18 | 87918 | 105035
5 | 23:20:36 | 04:42:72 | 105036 | 126257
6 | 28:03:33 | 01:25:21 | 126258 | 132653
7 | 29:28:54 | 11:13:41 | 132654 | 183169
8 | 40:42:20 | 05:34:55 | 183170 | 208274
9 | 46:17:00 | 10:51:38 | 208275 | 257137
10 | 57:08:38 | 06:45:26 | 257138 | 287538
All Tracks
Album gain : -4.89 dB
Peak : 0.750000
Track 01
Filename : /Users/RIAA/Desktop/Ayler/CD5/01 concert announcement by Ralf Schulte-Bahrenberg.flac
Track gain : -1.26 dB
Peak : 0.597412
CRC32 hash (test run) : CE9E99BC
CRC32 hash : CE9E99BC
CRC32 hash (skip zero) : 67782C10
AccurateRip signature : 1C91CA10
->Accurately ripped! (confidence 4)
Statistics
Read error : 0
Skipped (treated as error) : 0
Edge jitter error (maybe fixed) : 0
Atom jitter error (maybe fixed) : 0
Drift error (maybe fixed) : 0
Dropped bytes error (maybe fixed) : 0
Duplicated bytes error (maybe fixed) : 0
Track 02
Filename : /Users/RIAA/Desktop/Ayler/CD5/02 Bells.flac
Track gain : -5.70 dB
Peak : 0.699615
CRC32 hash (test run) : D4E19B63
CRC32 hash : D4E19B63
CRC32 hash (skip zero) : 25E4DD69
AccurateRip signature : 9EB5FC8C
->Accurately ripped! (confidence 4)
Statistics
Read error : 0
Skipped (treated as error) : 0
Edge jitter error (maybe fixed) : 0
Atom jitter error (maybe fixed) : 0
Drift error (maybe fixed) : 0
Dropped bytes error (maybe fixed) : 0
Duplicated bytes error (maybe fixed) : 0
Track 03
Filename : /Users/RIAA/Desktop/Ayler/CD5/03 Truth Is Marching In.flac
Track gain : -6.14 dB
Peak : 0.663422
CRC32 hash (test run) : 6F929DD8
CRC32 hash : 6F929DD8
CRC32 hash (skip zero) : 49A3A2B1
AccurateRip signature : 3F0CBB39
->Accurately ripped! (confidence 4)
Statistics
Read error : 0
Skipped (treated as error) : 0
Edge jitter error (maybe fixed) : 0
Atom jitter error (maybe fixed) : 0
Drift error (maybe fixed) : 0
Dropped bytes error (maybe fixed) : 0
Duplicated bytes error (maybe fixed) : 0
Track 04
Filename : /Users/RIAA/Desktop/Ayler/CD5/04 Omega.flac
Track gain : -4.96 dB
Peak : 0.750000
CRC32 hash (test run) : 35B4E096
CRC32 hash : 35B4E096
CRC32 hash (skip zero) : 82FEB70C
AccurateRip signature : 0CFD4614
->Accurately ripped! (confidence 4)
Statistics
Read error : 0
Skipped (treated as error) : 0
Edge jitter error (maybe fixed) : 0
Atom jitter error (maybe fixed) : 0
Drift error (maybe fixed) : 0
Dropped bytes error (maybe fixed) : 0
Duplicated bytes error (maybe fixed) : 0
Track 05
Filename : /Users/RIAA/Desktop/Ayler/CD5/05 Our Prayer (Don Ayler).flac
Track gain : -5.02 dB
Peak : 0.704132
CRC32 hash (test run) : 3183A80E
CRC32 hash : 3183A80E
CRC32 hash (skip zero) : 6CD2A5A6
AccurateRip signature : D2C6831C
->Accurately ripped! (confidence 4)
Statistics
Read error : 0
Skipped (treated as error) : 0
Edge jitter error (maybe fixed) : 0
Atom jitter error (maybe fixed) : 0
Drift error (maybe fixed) : 0
Dropped bytes error (maybe fixed) : 0
Duplicated bytes error (maybe fixed) : 0
Track 06
Filename : /Users/RIAA/Desktop/Ayler/CD5/06 spoken introduction by Peter de Wit.flac
Track gain : -1.95 dB
Peak : 0.708282
CRC32 hash (test run) : 5948D1C1
CRC32 hash : 5948D1C1
CRC32 hash (skip zero) : 433FF864
AccurateRip signature : A1835CBB
->Accurately ripped! (confidence 4)
Statistics
Read error : 0
Skipped (treated as error) : 0
Edge jitter error (maybe fixed) : 0
Atom jitter error (maybe fixed) : 0
Drift error (maybe fixed) : 0
Dropped bytes error (maybe fixed) : 0
Duplicated bytes error (maybe fixed) : 0
Track 07
Filename : /Users/RIAA/Desktop/Ayler/CD5/07 Truth Is Marching In.flac
Track gain : -3.44 dB
Peak : 0.727386
CRC32 hash (test run) : 32185562
CRC32 hash : 32185562
CRC32 hash (skip zero) : 2855198D
AccurateRip signature : A473C622
->Accurately ripped! (confidence 4)
Statistics
Read error : 0
Skipped (treated as error) : 0
Edge jitter error (maybe fixed) : 0
Atom jitter error (maybe fixed) : 0
Drift error (maybe fixed) : 0
Dropped bytes error (maybe fixed) : 0
Duplicated bytes error (maybe fixed) : 0
Track 08
Filename : /Users/RIAA/Desktop/Ayler/CD5/08 Bells.flac
Track gain : -5.31 dB
Peak : 0.727386
CRC32 hash (test run) : 64D3826A
CRC32 hash : 64D3826A
CRC32 hash (skip zero) : C4CFF234
AccurateRip signature : 49590642
->Accurately ripped! (confidence 4)
Statistics
Read error : 0
Skipped (treated as error) : 0
Edge jitter error (maybe fixed) : 0
Atom jitter error (maybe fixed) : 0
Drift error (maybe fixed) : 0
Dropped bytes error (maybe fixed) : 0
Duplicated bytes error (maybe fixed) : 0
Track 09
Filename : /Users/RIAA/Desktop/Ayler/CD5/09 Spirits Rejoice.flac
Track gain : -2.95 dB
Peak : 0.727386
CRC32 hash (test run) : 5866A1B2
CRC32 hash : 5866A1B2
CRC32 hash (skip zero) : A4FFBDB8
AccurateRip signature : B7C8293D
->Accurately ripped! (confidence 4)
Statistics
Read error : 0
Skipped (treated as error) : 0
Edge jitter error (maybe fixed) : 0
Atom jitter error (maybe fixed) : 0
Drift error (maybe fixed) : 0
Dropped bytes error (maybe fixed) : 0
Duplicated bytes error (maybe fixed) : 0
Track 10
Filename : /Users/RIAA/Desktop/Ayler/CD5/10 "Free Spiritual Music", part IV.flac
Track gain : -1.24 dB
Peak : 0.727386
CRC32 hash (test run) : A90999F6
CRC32 hash : A90999F6
CRC32 hash (skip zero) : E372E3D9
AccurateRip signature : D9862827
->Accurately ripped! (confidence 4)
Statistics
Read error : 0
Skipped (treated as error) : 0
Edge jitter error (maybe fixed) : 0
Atom jitter error (maybe fixed) : 0
Drift error (maybe fixed) : 0
Dropped bytes error (maybe fixed) : 0
Duplicated bytes error (maybe fixed) : 0
No errors occurred
End of status report
 
6
X Lossless Decoder version 20091202 (114.4)
XLD extraction logfile from 2009-12-01 23:00:43 +0100
Various Artists / Holy Ghost CD6
Used drive : MATSHITA DVD-R UJ-857E (revision ZF1E)
Use cdparanoia mode : YES (CDParanoia III 10.2 engine)
Disable audio cache : OK for the drive with cache less than 2750KB
Make use of C2 pointers : NO
Read offset correction : 102
Max retry count : 100
TOC of the extracted CD
Track | Start | Length | Start sector | End sector
---------------------------------------------------------
1 | 00:00:00 | 09:08:11 | 0 | 41110
2 | 09:08:11 | 05:45:02 | 41111 | 66987
3 | 14:53:13 | 08:25:31 | 66988 | 104893
4 | 23:18:44 | 06:26:72 | 104894 | 133915
5 | 29:45:41 | 23:04:00 | 133916 | 237715
6 | 52:49:41 | 06:09:24 | 237716 | 265414
7 | 58:58:65 | 00:55:66 | 265415 | 269605
8 | 59:54:56 | 10:20:31 | 269606 | 316136
9 | 70:15:12 | 07:09:73 | 316137 | 348384
All Tracks
Album gain : -2.88 dB
Peak : 1.000000
Track 01
Filename : /Users/RIAA/Desktop/Ayler/CD6/01 Omega.flac
Track gain : -2.28 dB
Peak : 0.811981
CRC32 hash (test run) : C19DA805
CRC32 hash : C19DA805
CRC32 hash (skip zero) : D8526BA7
AccurateRip signature : 27C2E2AE
->Accurately ripped! (confidence 5)
Statistics
Read error : 0
Skipped (treated as error) : 0
Edge jitter error (maybe fixed) : 0
Atom jitter error (maybe fixed) : 0
Drift error (maybe fixed) : 0
Dropped bytes error (maybe fixed) : 0
Duplicated bytes error (maybe fixed) : 0
Track 02
Filename : /Users/RIAA/Desktop/Ayler/CD6/02 Universal Indians.flac
Track gain : -2.27 dB
Peak : 0.982269
CRC32 hash (test run) : F507E8C2
CRC32 hash : F507E8C2
CRC32 hash (skip zero) : 6F8F9218
AccurateRip signature : AADBD069
->Accurately ripped! (confidence 5)
Statistics
Read error : 0
Skipped (treated as error) : 0
Edge jitter error (maybe fixed) : 0
Atom jitter error (maybe fixed) : 0
Drift error (maybe fixed) : 0
Dropped bytes error (maybe fixed) : 0
Duplicated bytes error (maybe fixed) : 0
Track 03
Filename : /Users/RIAA/Desktop/Ayler/CD6/03 Our Prayer (Don Ayler).flac
Track gain : -1.79 dB
Peak : 0.728668
CRC32 hash (test run) : 11274FFC
CRC32 hash : 11274FFC
CRC32 hash (skip zero) : E9AF9A8A
AccurateRip signature : D7843311
->Accurately ripped! (confidence 5)
Statistics
Read error : 0
Skipped (treated as error) : 0
Edge jitter error (maybe fixed) : 0
Atom jitter error (maybe fixed) : 0
Drift error (maybe fixed) : 0
Dropped bytes error (maybe fixed) : 0
Duplicated bytes error (maybe fixed) : 0
Track 04
Filename : /Users/RIAA/Desktop/Ayler/CD6/04 Our Prayer (Don Ayler).flac
Track gain : -2.86 dB
Peak : 0.655121
CRC32 hash (test run) : 1A33A50F
CRC32 hash : 1A33A50F
CRC32 hash (skip zero) : E6E48EA5
AccurateRip signature : 87743A41
->Accurately ripped! (confidence 5)
Statistics
Read error : 0
Skipped (treated as error) : 0
Edge jitter error (maybe fixed) : 0
Atom jitter error (maybe fixed) : 0
Drift error (maybe fixed) : 0
Dropped bytes error (maybe fixed) : 0
Duplicated bytes error (maybe fixed) : 0
Track 05
Filename : /Users/RIAA/Desktop/Ayler/CD6/05 Upper and Lower Egypt (Pharoah Sanders).flac
Track gain : -4.13 dB
Peak : 1.000000
CRC32 hash (test run) : 8D962BE0
CRC32 hash : 8D962BE0
CRC32 hash (skip zero) : 16486125
AccurateRip signature : 5ECFEEAE
->Accurately ripped! (confidence 5)
Statistics
Read error : 0
Skipped (treated as error) : 0
Edge jitter error (maybe fixed) : 0
Atom jitter error (maybe fixed) : 0
Drift error (maybe fixed) : 0
Dropped bytes error (maybe fixed) : 0
Duplicated bytes error (maybe fixed) : 0
Track 06
Filename : /Users/RIAA/Desktop/Ayler/CD6/06 [blues].flac
Track gain : -0.76 dB
Peak : 0.772675
CRC32 hash (test run) : 020A757C
CRC32 hash : 020A757C
CRC32 hash (skip zero) : 3CFF0270
AccurateRip signature : 2BEC1DC4
->Accurately ripped! (confidence 5)
Statistics
Read error : 0
Skipped (treated as error) : 0
Edge jitter error (maybe fixed) : 0
Atom jitter error (maybe fixed) : 0
Drift error (maybe fixed) : 0
Dropped bytes error (maybe fixed) : 0
Duplicated bytes error (maybe fixed) : 0
Track 07
Filename : /Users/RIAA/Desktop/Ayler/CD6/07 [sermon].flac
Track gain : 0.09 dB
Peak : 0.536469
CRC32 hash (test run) : 5425A97C
CRC32 hash : 5425A97C
CRC32 hash (skip zero) : 54FBFB3E
AccurateRip signature : C7773A01
->Accurately ripped! (confidence 5)
Statistics
Read error : 0
Skipped (treated as error) : 0
Edge jitter error (maybe fixed) : 0
Atom jitter error (maybe fixed) : 0
Drift error (maybe fixed) : 0
Dropped bytes error (maybe fixed) : 0
Duplicated bytes error (maybe fixed) : 0
Track 08
Filename : /Users/RIAA/Desktop/Ayler/CD6/08 Thank God for Women (Albert Ayler - Mary Parks).flac
Track gain : -3.11 dB
Peak : 0.958252
CRC32 hash (test run) : F65C626E
CRC32 hash : F65C626E
CRC32 hash (skip zero) : B887EC99
AccurateRip signature : 95986E20
->Accurately ripped! (confidence 5)
Statistics
Read error : 0
Skipped (treated as error) : 0
Edge jitter error (maybe fixed) : 0
Atom jitter error (maybe fixed) : 0
Drift error (maybe fixed) : 0
Dropped bytes error (maybe fixed) : 0
Duplicated bytes error (maybe fixed) : 0
Track 09
Filename : /Users/RIAA/Desktop/Ayler/CD6/09 New Ghosts [demo fragments] (Albert Ayler - Mary Parks).flac
Track gain : -2.13 dB
Peak : 0.960236
CRC32 hash (test run) : CCDB61B2
CRC32 hash : CCDB61B2
CRC32 hash (skip zero) : 44CC882A
AccurateRip signature : A51B26CD
->Accurately ripped! (confidence 3)
Statistics
Read error : 0
Skipped (treated as error) : 0
Edge jitter error (maybe fixed) : 0
Atom jitter error (maybe fixed) : 0
Drift error (maybe fixed) : 0
Dropped bytes error (maybe fixed) : 0
Duplicated bytes error (maybe fixed) : 0
No errors occurred
End of status report
 
7
X Lossless Decoder version 20091202 (114.4)
XLD extraction logfile from 2009-12-02 00:24:54 +0100
Various Artists / Holy Ghost (disc 7)
Used drive : MATSHITA DVD-R UJ-857E (revision ZF1E)
Use cdparanoia mode : YES (CDParanoia III 10.2 engine)
Disable audio cache : OK for the drive with cache less than 2750KB
Make use of C2 pointers : NO
Read offset correction : 102
Max retry count : 100
TOC of the extracted CD
Track | Start | Length | Start sector | End sector
---------------------------------------------------------
1 | 00:00:01 | 10:53:51 | 1 | 49026
2 | 10:53:52 | 10:19:25 | 49027 | 95476
3 | 21:13:02 | 08:41:73 | 95477 | 134624
4 | 29:55:00 | 14:18:38 | 134625 | 199012
5 | 44:13:38 | 05:21:06 | 199013 | 223093
6 | 49:34:44 | 10:38:27 | 223094 | 270970
All Tracks
Album gain : -2.90 dB
Peak : 0.750000
Track 01
Filename : /Users/RIAA/Desktop/Ayler/CD7/01 Prophet John.flac
Track gain : -2.81 dB
Peak : 0.485931
CRC32 hash (test run) : 9DB56982
CRC32 hash : 9DB56982
CRC32 hash (skip zero) : 06CEDF60
AccurateRip signature : 9824B3C1
->Accurately ripped! (confidence 4)
Statistics
Read error : 0
Skipped (treated as error) : 0
Edge jitter error (maybe fixed) : 0
Atom jitter error (maybe fixed) : 0
Drift error (maybe fixed) : 0
Dropped bytes error (maybe fixed) : 0
Duplicated bytes error (maybe fixed) : 0
Track 02
Filename : /Users/RIAA/Desktop/Ayler/CD7/02 Judge Ye Not.flac
Track gain : -3.24 dB
Peak : 0.493286
CRC32 hash (test run) : BFF33A9B
CRC32 hash : BFF33A9B
CRC32 hash (ski
Any questions - support@pro-jazz.com. Есть вопросы - support@pro-jazz.com
19:18
265
Нет комментариев. Ваш будет первым!