Вы используете незарегистрированную версию компонента "Вкладки"!

Поиск

(Free Jazz) Alan Sondheim - Ritual All 7-70 - 2008, APE (image+.cue), lossless

Треклист:
Alan Sondheim / Ritual All 7-70
Жанр: Free Jazz
Страна-производитель диска: USA
Год издания диска: 2008
Издатель (лейбл): ESP-Disk
Номер по каталогу: ESP 1048
Страна: USA
Аудиокодек: APE (*.ape)
Тип рипа: image+.cue
Битрейт аудио: lossless
Продолжительность: 00:40:24
Источник (релизер): nnm(barin99)
Наличие сканов в содержимом раздачи: да
Треклист:
1. 770 3:19
2. 771 5:02
3. 772 1:14
4. June 3:02
5. 774 1:50
6. 775 5:23
7. 776 5:03
8. 777 1:54
9. 778 3:09
10. 779 2:33
11. 780 1:49
12. 781 4:03
13. 782 1:57
 
Лог создания рипа
Exact Audio Copy V0.99 prebeta 5 from 4. May 2009
EAC extraction logfile from 30. May 2011, 22:26
Alan Sondheim / Ritual-All-7-70
Used drive : TSSTcorpDVD+-RW TS-U633A Adapter: 0 ID: 1
Read mode : Secure
Utilize accurate stream : Yes
Defeat audio cache : Yes
Make use of C2 pointers : No
Read offset correction : 6
Overread into Lead-In and Lead-Out : No
Fill up missing offset samples with silence : Yes
Delete leading and trailing silent blocks : No
Null samples used in CRC calculations : Yes
Used interface : Native Win32 interface for Win NT & 2000
Used output format : Internal WAV Routines
Sample format : 44.100 Hz; 16 Bit; Stereo
TOC of the extracted CD
Track | Start | Length | Start sector | End sector
---------------------------------------------------------
1 | 0:00.00 | 3:19.20 | 0 | 14944
2 | 3:19.20 | 5:02.27 | 14945 | 37621
3 | 8:21.47 | 1:14.15 | 37622 | 43186
4 | 9:35.62 | 3:02.08 | 43187 | 56844
5 | 12:37.70 | 1:50.15 | 56845 | 65109
6 | 14:28.10 | 5:23.73 | 65110 | 89407
7 | 19:52.08 | 5:03.62 | 89408 | 112194
8 | 24:55.70 | 1:54.18 | 112195 | 120762
9 | 26:50.13 | 3:09.45 | 120763 | 134982
10 | 29:59.58 | 2:33.20 | 134983 | 146477
11 | 32:33.03 | 1:49.53 | 146478 | 154705
12 | 34:22.56 | 4:03.72 | 154706 | 173002
13 | 38:26.53 | 1:57.08 | 173003 | 181785
Range status and errors
Selected range
Filename C:\_Arc\BARIN99\Alan Sondheim - Ritual-All-7-70\Alan Sondheim - Ritual-All-7-70.wav
Peak level 95.0 %
Range quality 100.0 %
Copy CRC 7AE02978
Copy OK
No errors occurred
AccurateRip summary
Track 1 not present in database
Track 2 not present in database
Track 3 not present in database
Track 4 not present in database
Track 5 not present in database
Track 6 not present in database
Track 7 not present in database
Track 8 not present in database
Track 9 not present in database
Track 10 not present in database
Track 11 not present in database
Track 12 not present in database
Track 13 not present in database
None of the tracks are present in the AccurateRip database
End of status report
 
Содержание индексной карты (.CUE)
REM GENRE Jazz
REM DATE 1967
REM DISCID A909770D
REM COMMENT "ExactAudioCopy v0.99pb5"
PERFORMER "Alan Sondheim"
TITLE "Ritual-All-7-70"
FILE "Alan Sondheim - Ritual-All-7-70.wav" WAVE
TRACK 01 AUDIO
TITLE "770"
PERFORMER "Alan Sondheim"
INDEX 01 00:00:00
TRACK 02 AUDIO
TITLE "771"
PERFORMER "Alan Sondheim"
INDEX 00 03:17:20
INDEX 01 03:19:20
TRACK 03 AUDIO
TITLE "772"
PERFORMER "Alan Sondheim"
INDEX 00 08:19:47
INDEX 01 08:21:47
TRACK 04 AUDIO
TITLE "June"
PERFORMER "Alan Sondheim"
INDEX 00 09:33:62
INDEX 01 09:35:62
TRACK 05 AUDIO
TITLE "774"
PERFORMER "Alan Sondheim"
INDEX 00 12:35:70
INDEX 01 12:37:70
TRACK 06 AUDIO
TITLE "775"
PERFORMER "Alan Sondheim"
INDEX 00 14:26:10
INDEX 01 14:28:10
TRACK 07 AUDIO
TITLE "776"
PERFORMER "Alan Sondheim"
INDEX 00 19:50:08
INDEX 01 19:52:08
TRACK 08 AUDIO
TITLE "777"
PERFORMER "Alan Sondheim"
INDEX 00 24:53:70
INDEX 01 24:55:70
TRACK 09 AUDIO
TITLE "778"
PERFORMER "Alan Sondheim"
INDEX 00 26:48:13
INDEX 01 26:50:13
TRACK 10 AUDIO
TITLE "779"
PERFORMER "Alan Sondheim"
INDEX 00 29:57:58
INDEX 01 29:59:58
TRACK 11 AUDIO
TITLE "780"
PERFORMER "Alan Sondheim"
INDEX 00 32:31:03
INDEX 01 32:33:03
TRACK 12 AUDIO
TITLE "781"
PERFORMER "Alan Sondheim"
INDEX 00 34:20:56
INDEX 01 34:22:56
TRACK 13 AUDIO
TITLE "782"
PERFORMER "Alan Sondheim"
INDEX 00 38:24:53
INDEX 01 38:26:53
 
Об альбоме (сборнике)
by Stewart Mason
Ritual All 7-70 is a curious collection of short improvisations by the multi-instrumentalist Alan Sondheim -- who plays, among others, koto, English horn, electric and acoustic guitars, and various percussion and reed instruments -- and a bassist, percussionist (doubling on tabla and bongos), and drummer, with the wordless vocals of Ruth Ann Hutchinson echoing the horn lines and occasionally spiraling off into the ether on their own. Although they largely sound like live improvisations by a full band, the fact that Sondheim plays the majority of the instruments by himself suggests that these pieces were painstakingly overdubbed. Although Sondheim's 1968 follow-up, T'Other Little Tune, is a largely electronic effort with quite a bit of pioneering synthesizer and oscillator work, this album is much more traditional in its sound and format. Some of these short pieces -- all of them given numbers between 770 and 782 for titles, except for the almost traditional-sounding "June" -- recall John Cage's occasionally harsh '40s and '50s vintage work, when randomness and indeterminacy were the primary focus of his composing method, while the more overtly jazz-oriented works, like the fascinating "780" (which features a rat-a-tat rhythm that may be of electronic or found-sound origin), are more in tune with the usual ESP ethos.
 
Состав
Ruth Ann Hutchinson — Vocals
Chris Mattheson — Bass
Barry Sugarman — Bongos, Tabla
J.P. — Drums
Robert Poholek — Cornet, Trumpet
Alan Sondheim — Bansuri, Clarinet, Guitar,Horn (English), Koto, Sax (Alto), Sona, Suling, Xylophone
По всем вопросам пишите личное сообщение пользователю M0p94ok.
15:11
186
Нет комментариев. Ваш будет первым!