Вы используете незарегистрированную версию компонента "Вкладки"!

Поиск

(Free Jazz) Adam Lane Full Throttle Orchestra - Ashcan Rantings - 2010, FLAC (image+.cue) lossless

(Free Jazz) Adam Lane Full Throttle Orchestra - Ashcan Rantings - 2010, FLAC (image+.cue) lossless
Треклист:
Adam Lane Full Throttle Orchestra - Ashcan Rantings

Жанр: Free Jazz
Страна-производитель диска: Portugal
Год издания диска: 2010
Издатель (лейбл): Clean Feed CF203
Аудио кодек: FLAC (*.flac)
Тип рипа: image+.cue
Битрейт аудио: lossless
Продолжительность: 1:34:38
Источник (релизер): собственный рип
Наличие сканов в содержимом раздачи: нет
Nate Wooley: trumpet
Taylor Ho Bynum: trumpet
David Bindman: tenor and soprano saxophones
Avram Fefer: alto saxophone, clarinet
Matt Bauder: tenor and baritone saxophones
Reut Regev: trombone
Tim Vaughn: trombone
Adam Lane: bass
Igal Foni: drums
Disk 1
1. Imaginary Portrait
2. Marshall
3. Nine Man Morris
4. Desperate Incantations
5. House of Elegant
Disk 2
1. Ashcan Rantings
2. Lucia
3. Sienna's Slip Jig
4. Mahler
5. Bright Star Calypso
Recorded on April 16th, 2009 at Systems Two, Brooklyn, NY by Joe Marciano.
 
Лог создания рипа
 
Disc 1
Exact Audio Copy V0.99 prebeta 4 from 23. January 2008
EAC extraction logfile from 18. October 2010, 21:56
Adam Lane's Full Throttle Orchestra / Ashcan Rantings (Disc 1)
Used drive : TSSTcorpCD/DVDW SH-S182M Adapter: 2 ID: 0
Read mode : Secure
Utilize accurate stream : Yes
Defeat audio cache : Yes
Make use of C2 pointers : No
Read offset correction : 6
Overread into Lead-In and Lead-Out : No
Fill up missing offset samples with silence : Yes
Delete leading and trailing silent blocks : No
Null samples used in CRC calculations : Yes
Used interface : Installed external ASPI interface
Used output format : User Defined Encoder
Selected bitrate : 1024 kBit/s
Quality : High
Add ID3 tag : No
Command line compressor : C:\Program Files\Exact Audio Copy\Flac\flac.exe
Additional command line options : -6 -V -T "ARTIST=%a" -T "TITLE=%t" -T "ALBUM=%g" -T "DATE=%y" -T "TRACKNUMBER=%n" -T "GENRE=%m" -T "COMMENT=EAC FLAC -6" %s
TOC of the extracted CD
Track | Start | Length | Start sector | End sector
---------------------------------------------------------
1 | 0:00.00 | 9:47.64 | 0 | 44088
2 | 9:47.64 | 11:54.11 | 44089 | 97649
3 | 21:42.00 | 10:13.59 | 97650 | 143683
4 | 31:55.59 | 8:04.26 | 143684 | 180009
5 | 40:00.10 | 8:18.70 | 180010 | 217429
Range status and errors
Selected range
Filename C:\Users\Igor\Music\eac\Adam Lane's Full Throttle Orchestra - Ashcan Rantings (Disc 1).wav
Peak level 100.0 %
Range quality 100.0 %
Test CRC 2EF5356F
Copy CRC 2EF5356F
Copy OK
No errors occurred
AccurateRip summary
Track 1 not present in database
Track 2 not present in database
Track 3 not present in database
Track 4 not present in database
Track 5 not present in database
None of the tracks are present in the AccurateRip database
End of status report
 
Disc 2
Exact Audio Copy V0.99 prebeta 4 from 23. January 2008
EAC extraction logfile from 18. October 2010, 22:12
Adam Lane's Full Throttle Orchestra / Ashcan Rantings (Disc 2)
Used drive : TSSTcorpCD/DVDW SH-S182M Adapter: 2 ID: 0
Read mode : Secure
Utilize accurate stream : Yes
Defeat audio cache : Yes
Make use of C2 pointers : No
Read offset correction : 6
Overread into Lead-In and Lead-Out : No
Fill up missing offset samples with silence : Yes
Delete leading and trailing silent blocks : No
Null samples used in CRC calculations : Yes
Used interface : Installed external ASPI interface
Used output format : User Defined Encoder
Selected bitrate : 1024 kBit/s
Quality : High
Add ID3 tag : No
Command line compressor : C:\Program Files\Exact Audio Copy\Flac\flac.exe
Additional command line options : -6 -V -T "ARTIST=%a" -T "TITLE=%t" -T "ALBUM=%g" -T "DATE=%y" -T "TRACKNUMBER=%n" -T "GENRE=%m" -T "COMMENT=EAC FLAC -6" %s
TOC of the extracted CD
Track | Start | Length | Start sector | End sector
---------------------------------------------------------
1 | 0:00.00 | 11:19.46 | 0 | 50970
2 | 11:19.46 | 9:56.49 | 50971 | 95719
3 | 21:16.20 | 10:22.42 | 95720 | 142411
4 | 31:38.62 | 4:25.04 | 142412 | 162290
5 | 36:03.66 | 10:15.24 | 162291 | 208439
Range status and errors
Selected range
Filename C:\Users\Igor\Music\eac\Adam Lane's Full Throttle Orchestra - Ashcan Rantings (Disc 2).wav
Peak level 100.0 %
Range quality 100.0 %
Test CRC 543334FD
Copy CRC 543334FD
Copy OK
No errors occurred
AccurateRip summary
Track 1 not present in database
Track 2 not present in database
Track 3 not present in database
Track 4 not present in database
Track 5 not present in database
None of the tracks are present in the AccurateRip database
End of status report
Any questions -> support@pro-jazz.com. По всем вопросам пишите -> support@pro-jazz.com
04:59
173
Нет комментариев. Ваш будет первым!