Вы используете незарегистрированную версию компонента "Вкладки"!

Поиск

(Free Improvisations, Experimental) Breschand - Doneda - Zbinden - L'Intense - 2000, FLAC (tracks+.cue), lossless

(Free Improvisations, Experimental) Breschand - Doneda - Zbinden - L'Intense - 2000, FLAC (tracks+.cue), lossless
Треклист:
Breschand - Doneda - Zbinden - L'Intense
Жанр: Free Improvisations, Experimental
Страна-производитель диска: Switzerland
Год издания диска: 2000
Издатель (лейбл): For 4 Ears
Номер по каталогу: CD 1138
Аудиокодек: FLAC (*.flac)
Тип рипа: tracks+.cue
Битрейт аудио: lossless
Продолжительность: 59:15
Источник (релизер): собственный рип с оригинального диска.
Наличие сканов в содержимом раздачи: да
Треклист:
01. Stase
02. & Souffle
03. Espace Champs
04. Temps Nodal
05. Octogone
 
Лог создания рипа
Exact Audio Copy V1.0 beta 2 from 29. April 2011
EAC extraction logfile from 5. February 2012, 11:54
Helene Breschand-Michel Doneda-Gerald Zbinden / L'intense
Used drive : TSSTcorpCDDVDW SH-S222A Adapter: 1 ID: 0
Read mode : Secure
Utilize accurate stream : Yes
Defeat audio cache : Yes
Make use of C2 pointers : No
Read offset correction : 6
Overread into Lead-In and Lead-Out : No
Fill up missing offset samples with silence : Yes
Delete leading and trailing silent blocks : No
Null samples used in CRC calculations : Yes
Used interface : Native Win32 interface for Win NT & 2000
Gap handling : Appended to previous track
Used output format : User Defined Encoder
Selected bitrate : 896 kBit/s
Quality : High
Add ID3 tag : No
Command line compressor : C:\Tool\CD\EAC10\FLAC\FLAC.EXE
Additional command line options : -6 -V -T "ARTIST=%artist%" -T "TITLE=%title%" -T "ALBUM=%albumtitle%" -T "DATE=%year%" -T "TRACKNUMBER=%tracknr%" -T "GENRE=%genre%" -T "COMMENT=%comment%" -T "BAND=%albuminterpret%" -T "COMPOSER=%composer%" %haslyrics%--ta
TOC of the extracted CD
Track | Start | Length | Start sector | End sector
---------------------------------------------------------
1 | 0:00.00 | 27:23.20 | 0 | 123244
2 | 27:23.20 | 11:02.02 | 123245 | 172896
3 | 38:25.22 | 7:35.40 | 172897 | 207061
4 | 46:00.62 | 8:09.60 | 207062 | 243796
5 | 54:10.47 | 5:06.10 | 243797 | 266756
Track 1
Filename C:\! UPLOAD\Helene Breschand - Michel Doneda - Gerald Zbinden - L'intense (1999) [FLAC] {For4Ears}\01 - Stase.wav
Pre-gap length 0:00:02.00
Peak level 96.0 %
Extraction speed 3.7 X
Track quality 100.0 %
Test CRC E711BE2F
Copy CRC E711BE2F
Accurately ripped (confidence 1) [F75F93CE] (AR v1)
Copy OK
Track 2
Filename C:\! UPLOAD\Helene Breschand - Michel Doneda - Gerald Zbinden - L'intense (1999) [FLAC] {For4Ears}\02 - And souffle.wav
Pre-gap length 0:00:08.20
Peak level 96.6 %
Extraction speed 3.4 X
Track quality 99.9 %
Test CRC D16B902D
Copy CRC D16B902D
Accurately ripped (confidence 1) [D09C700A] (AR v1)
Copy OK
Track 3
Filename C:\! UPLOAD\Helene Breschand - Michel Doneda - Gerald Zbinden - L'intense (1999) [FLAC] {For4Ears}\03 - Espace champs.wav
Peak level 96.9 %
Extraction speed 3.5 X
Track quality 100.0 %
Test CRC CF083D7C
Copy CRC CF083D7C
Accurately ripped (confidence 1) [FBD12B8F] (AR v1)
Copy OK
Track 4
Filename C:\! UPLOAD\Helene Breschand - Michel Doneda - Gerald Zbinden - L'intense (1999) [FLAC] {For4Ears}\04 - Temps nodal.wav
Peak level 95.6 %
Extraction speed 3.5 X
Track quality 100.0 %
Test CRC 0D0C2A71
Copy CRC 0D0C2A71
Accurately ripped (confidence 1) [623464A8] (AR v1)
Copy OK
Track 5
Filename C:\! UPLOAD\Helene Breschand - Michel Doneda - Gerald Zbinden - L'intense (1999) [FLAC] {For4Ears}\05 - Octogone.wav
Peak level 99.9 %
Extraction speed 3.2 X
Track quality 100.0 %
Test CRC E1CC3B31
Copy CRC E1CC3B31
Accurately ripped (confidence 1) [9F7E759A] (AR v1)
Copy OK
All tracks accurately ripped
No errors occurred
End of status report
---- CUETools DB Plugin V2.1.2
[CTDB TOCID: mvrOejbhLJJkW8gD_rI.5thPmUc-] disk not present in database, Submit result: mvrOejbhLJJkW8gD_rI.5thPmUc- has been uploaded
==== Log checksum 78D0AF5301BBE0A754EB7223B8C1ABFA9C02D2DA975A8FC5EAE66A9C977F31CD ====
 
Содержание индексной карты (.CUE)
REM GENRE Avantgarde
REM DATE 1999
REM DISCID 3B0DE405
REM COMMENT "ExactAudioCopy v1.0b2"
PERFORMER "Helene Breschand-Michel Doneda-Gerald Zbinden"
TITLE "L'intense"
FILE "01 - Stase.wav" WAVE
TRACK 01 AUDIO
TITLE "Stase"
PERFORMER "Helene Breschand-Michel Doneda-Gerald Zbinden"
INDEX 01 00:00:00
TRACK 02 AUDIO
TITLE "And souffle"
PERFORMER "Helene Breschand-Michel Doneda-Gerald Zbinden"
INDEX 00 27:15:00
FILE "02 - And souffle.wav" WAVE
INDEX 01 00:00:00
FILE "03 - Espace champs.wav" WAVE
TRACK 03 AUDIO
TITLE "Espace champs"
PERFORMER "Helene Breschand-Michel Doneda-Gerald Zbinden"
INDEX 01 00:00:00
FILE "04 - Temps nodal.wav" WAVE
TRACK 04 AUDIO
TITLE "Temps nodal"
PERFORMER "Helene Breschand-Michel Doneda-Gerald Zbinden"
INDEX 01 00:00:00
FILE "05 - Octogone.wav" WAVE
TRACK 05 AUDIO
TITLE "Octogone"
PERFORMER "Helene Breschand-Michel Doneda-Gerald Zbinden"
INDEX 01 00:00:00
Доп. информация:
Recorded January 16, 17 and 18 1999 at Studio La Buissonne, Pernes Les Fontaines, France.
 
Об альбоме
"Based on long time collaboration between Doneda (sax) and Zbinden (guitar), this trio with harpplayer Héléne Breschand continues exploring wonderful soundscapes. The mix of the extraordinary harp -- unplugged -- with the really heavy stuff of the electric guitar gives kind of special fragility and a new dimension to every instrument."
 
Об альбоме (~ Ken Waxman)
Don't be frightened by the instrumentation. Although in other hands a program of harp, saxophone and guitar instrumentals might be viewed as a short cut to velvety boredom, Breschand and Doneda from France and Zbinden from Switzerland manage to use their equipment in a much more original way. "Espace Champs," for instance, which starts off as a moody pastoral piece, soon develops all sorts of sharp edges with saxophone peeps, harp string twangs and electric guitar buzzes
Elsewhere, as in "Octogone," the three seem to revel in the metalic sounds that can result from their instruments, with even the usually pastoral harp attacked like a powerful, many-stringed guitar. It's as if a 18th Century chamber orchestra in powdered wigs and ruffs suddenly pulled out Kiss masks and began transmitting heavy metal chords. Then there's "Stase," the longest piece, which seems most concerned with pure sound. Doneda comes out with short bursts of bird-like notes, while the other two produce a textural, rhythmic background. The sound map created is so varied, in fact, that it often seems as if the trio has gained extra members on drums, bass and other horns. This doubling and redoubling of the sound goes on for more than 27 minutes until the whole thing abruptly fades away.
Conventional ambient or new age or smooth jazz fans would be wise to stay away from this disc. But improv followers interested in seeing what can be done with this instrumental combination will be well satisfied.
 
Об альбоме (by François Couture)
Five improvs, ranging from 5 to 27 minutes. In each one of them, the harp brings in an unusual soft touch in these improvisational contexts. But beware: Breschand can get mad, as in "Octogone" where the harp looses its feminine grace for a couple of minutes. Zbinden's guitar creates constant tension. Heavy in distortion, it can be screaming and screeching (think of Jean-Marc Monterra) or more discrete while it weaves electric textures à la Viennese, close to the art of Burkhard Stangl or Martin Siewert. Between these two instruments, Doneda's soprano sax acts like a bridge going from one to the other, linking these two personalities with his sounds, at times very noisy, more lyrical the next minute.
L'Intense has the panache of a great improvised music record. Although assuming a rather harsh form to the untrained ear, this music will captivate the open-minded listener. A truly fantastic experience on a terra improvisa.
 
Об альбоме (~ Richard Cochrane)
......Breschand takes the traditional sound of the instrument as her starting-point rather than as something to be annihilated, playing "straight" for most of this disk. One can't say the same for Doneda, a player who becomes more impressive with every release, notwithstanding some rather negative things this writer had to say about his Anatomie des Clefs a year ago. The saxophonist has an extreme approach to his instrument, and often it's hard to tell what is hard-won technique and what is accident, but his ability to work in small-group settings is extraordinary.
Here, his gargling, strangulated voice is pitched between Breschand's thoughtful atonalities on the one hand and the slightly muffled roar of Zbinden's axe on the other. Zbinden plays some smart stuff, but it's his tendency to shroud it in a haze of distortion which is initially off-putting but ultimately rather satisfying. He becomes something of a force of nature, a lightening-storm backdrop to the strange meeting of Breschand and Doneda.
Indeed, it's surprising that these three have anything to say to one another at all, but they collaborate with considerable verve. Sometimes the easy option is taken -- "Espace Champs" is an extended piece of mood-music which sounds like it came straight off the score to some Hollywood sci-fi movie -- but even then the results are very pleasant. When the group really gets going, Doneda comes on like Evan Parker, what with his circular breathing and complicated timbral distortions, pushing the later further than Parker ever has, which is no slur on Parker and which is, indeed, part of the reason why Doneda can be hit-and-miss.
At those times, when Doneda's really hitting, Breschand plays almost like a double bass and Zbinden like a drummer; it's hard to explain how, exactly, but this trio of strange bedfellows turns into a free jazz trio and really cooks it up. One couldn't expect them to do it all the time, naturally, especially since this group isn't a jazz trio and their music superficially has a great deal in common with the refried high Modernism of Beins/Wastell/Davies. Yet there it is: the second half of "Temps Nodal" is a blistering fireball of pure New York loft preacher-man wailing, or rather a simulacrum of it, blasted into the 21st century and the centre of postmodernism with all its energy and complexity very much intact. This is a patchy record, but the poor patches are good, and the good patches are truly excellent.
 
Об альбоме
La rencontre du jazz improvisé et de la musique contemporaine est toujours un moment de création privilégié. Hélène Breschand nous prouve - s'il le fallait encore - que son talent lui permet de s'exprimer avec autant de réussite sur ces deux " registres ". Les morceaux de musique contemporaine qu'elle revisite - soulignons la pièce de Berio " Sequenza II " qui est un pur régal - et ses improvisations forment un album où une musique subtile et personnelle se dévoile peu à peu. Un grand moment d'écoute." L'intense " réunit trois musiciens, trois découvreurs, trois explorateurs de sons et de mots. Mettons du désordre dans ce tout trop ordonné pour le recomposer à notre façon. Jouons sur les sens, l'essence ; sans a priori, juste pour le plaisir d'être ensemble, juste pour découvrir notre sphère commune.
 
Состав
Hélène Breschand - harp
Michel Doneda - soprano sax
Gérald Zbinden - electric guitar
Any questions -> support@pro-jazz.com. По всем вопросам пишите -> support@pro-jazz.com
22:05
151
Нет комментариев. Ваш будет первым!