Вы используете незарегистрированную версию компонента "Вкладки"!

Поиск

(Free Improvisation, World Jazz) [CD] Luis Vicente Trio - Outeiro - 2011, FLAC (image+.cue), lossless

(Free Improvisation, World Jazz) [CD] Luis Vicente Trio - Outeiro - 2011, FLAC (image+.cue), lossless
Треклист:
Luís Vicente Trio / Outeiro
Жанр: Free Improvisation, World Jazz
Носитель: CD
Страна-производитель диска (релиза): Portugal
Год издания: 2011
Издатель (лейбл): JACC Records
Номер по каталогу: JR 019 CD
Аудиокодек: FLAC (*.flac)
Тип рипа: image+.cue
Битрейт аудио: lossless
Продолжительность: 49:27
Источник (релизер): я
Наличие сканов в содержимом раздачи: да
Треклист:
1. Algurezem (Luís Vicente) 7:42
2. Dança bêbeda 3:19
3. The Mountains Yell 3:27
4. Tell Me If You Know It 8:21
5. Tube Drop (Jeff Scheepers) 3:14
6. Cafe re minor 4:51
7. De uma vez só 2:27
8. Emersão 3:43
9. Balança mas não cai 3:39
10. Moving Between 6:41
11. Sentado à espera 2:03
All tracks by Vicente / Valente / Shalev except where indicated.
Recorded at Namouche Studio in Lisbon, March 10th, 2011.
Luís Vicente – Trumpet, Flugelhorn
Francesco Valente – Acoustic Bass
Oori Shalev – Percussion, Tabla
 
Лог создания рипа
Exact Audio Copy V1.0 beta 4 from 7. December 2014
EAC extraction logfile from 9. January 2015, 23:01
Luís Vicente Trio / Outeiro
Used drive : SlimtypeeNAU508 5 Adapter: 1 ID: 1
Read mode : Secure
Utilize accurate stream : Yes
Defeat audio cache : Yes
Make use of C2 pointers : No
Read offset correction : 6
Overread into Lead-In and Lead-Out : No
Fill up missing offset samples with silence : Yes
Delete leading and trailing silent blocks : No
Null samples used in CRC calculations : Yes
Used interface : Native Win32 interface for Win NT & 2000
Used output format : User Defined Encoder
Selected bitrate : 896 kBit/s
Quality : High
Add ID3 tag : No
Command line compressor : C:\Program Files (x86)\Exact Audio Copy\Flac\flac.exe
Additional command line options : -8 -V -T "ARTIST=%artist%" -T "TITLE=%title%" -T "ALBUM=%albumtitle%" -T "DATE=%year%" -T "TRACKNUMBER=%tracknr%" -T "TOTALTRACKS=%numtracks%" -T "GENRE=%genre%" -T "ALBUMARTIST=%albumartist%" -T "ALBUM ARTIST=%albumartist%" -T "COMMENT=EAC Secure Mode, Test & Copy, AccurateRip, FLAC -8" %source%
TOC of the extracted CD
Track | Start | Length | Start sector | End sector
---------------------------------------------------------
1 | 0:00.00 | 7:41.63 | 0 | 34637
2 | 7:41.63 | 3:18.61 | 34638 | 49548
3 | 11:00.49 | 3:26.59 | 49549 | 65057
4 | 14:27.33 | 8:21.01 | 65058 | 102633
5 | 22:48.34 | 3:14.04 | 102634 | 117187
6 | 26:02.38 | 4:50.69 | 117188 | 139006
7 | 30:53.32 | 2:27.14 | 139007 | 150045
8 | 33:20.46 | 3:43.12 | 150046 | 166782
9 | 37:03.58 | 3:39.26 | 166783 | 183233
10 | 40:43.09 | 6:41.13 | 183234 | 213321
11 | 47:24.22 | 2:03.11 | 213322 | 222557
Range status and errors
Selected range
Filename C:\EAC rips\Luís Vicente Trio - Outeiro.wav
Peak level 100.0 %
Extraction speed 3.3 X
Range quality 99.9 %
Test CRC 4787EAAE
Copy CRC 4787EAAE
Copy OK
No errors occurred
AccurateRip summary
Track 1 not present in database
Track 2 not present in database
Track 3 not present in database
Track 4 not present in database
Track 5 not present in database
Track 6 not present in database
Track 7 not present in database
Track 8 not present in database
Track 9 not present in database
Track 10 not present in database
Track 11 not present in database
None of the tracks are present in the AccurateRip database
End of status report
---- CUETools DB Plugin V2.1.4
[CTDB TOCID: 1OMzHDEjAH1653WIsJymfzYr0.g-] disk not present in database
Submit result: 1OMzHDEjAH1653WIsJymfzYr0.g- has been uploaded
==== Log checksum 18BC18F1AAAB0EC1D177C4E8B366CEAB00D94B924AD31DB263829335EDD9B7B3 ====
 
Содержание индексной карты (.CUE)
REM GENRE JACC Records 019
REM DATE 2011
REM DISCID 940B970B
REM COMMENT ExactAudioCopy v1.0b4
PERFORMER "Luís Vicente Trio"
TITLE "Outeiro"
FILE "Luís Vicente Trio - Outeiro.flac" WAVE
TRACK 01 AUDIO
TITLE "Algurezem"
PERFORMER "Luís Vicente Trio"
INDEX 01 00:00:00
TRACK 02 AUDIO
TITLE "Dança bêbeda"
PERFORMER "Luís Vicente Trio"
INDEX 01 07:41:63
TRACK 03 AUDIO
TITLE "The Mountains Yell"
PERFORMER "Luís Vicente Trio"
INDEX 01 11:00:49
TRACK 04 AUDIO
TITLE "Tell Me If You Know It"
PERFORMER "Luís Vicente Trio"
INDEX 01 14:27:33
TRACK 05 AUDIO
TITLE "Tube Drop "
PERFORMER "Luís Vicente Trio"
INDEX 01 22:48:34
TRACK 06 AUDIO
TITLE "Cafe re minor"
PERFORMER "Luís Vicente Trio"
INDEX 01 26:02:38
TRACK 07 AUDIO
TITLE "De uma vez só"
PERFORMER "Luís Vicente Trio"
INDEX 01 30:53:32
TRACK 08 AUDIO
TITLE "Emersão"
PERFORMER "Luís Vicente Trio"
INDEX 01 33:20:46
TRACK 09 AUDIO
TITLE "Balança mas não cai"
PERFORMER "Luís Vicente Trio"
INDEX 01 37:03:58
TRACK 10 AUDIO
TITLE "Moving Between"
PERFORMER "Luís Vicente Trio"
INDEX 01 40:43:09
TRACK 11 AUDIO
TITLE "Sentado à espera"
PERFORMER "Luís Vicente Trio"
INDEX 01 47:24:22
По всем вопросам пишите личное сообщение пользователю M0p94ok.
14:21
151
Нет комментариев. Ваш будет первым!