Вы используете незарегистрированную версию компонента "Вкладки"!

Поиск

(Free Improvisation) William Hooker, Lee Ranaldo - Envisioning - 1995, FLAC (image+.cue), lossless

Треклист:
William Hooker, Lee Ranaldo / Envisioning
Жанр: Free Improvisation
Страна-производитель диска: USA
Год издания: 1995
Издатель (лейбл): Knitting Factory Works
Номер по каталогу: KFW 159
Страна: USA
Аудиокодек: FLAC (*.flac)
Тип рипа: image+.cue
Битрейт аудио: lossless
Продолжительность: 56:57
Источник (релизер): Собственный CD
Наличие сканов в содержимом раздачи: да
Треклист:
1. Matches 30:02
2. Culture / Not Practice 15:38
3. Other Pictures 0:37
4. Spring 2:05
5. Strike! 7:24
 
Лог создания рипа
Exact Audio Copy V1.0 beta 3 from 29. August 2011
Отчёт EAC об извлечении, выполненном 31. мая 2012, 20:42
William Hooker and Lee Ranaldo / Envisioning
Дисковод: ATAPI iHAS120 6 Adapter: 3 ID: 0
Режим чтения : Достоверность
Использование точного потока : Да
Отключение кэша аудио : Да
Использование указателей C2 : Нет
Коррекция смещения при чтении : 6
Способность читать области Lead-in и Lead-out : Нет
Заполнение пропущенных сэмплов тишиной : Да
Удаление блоков с тишиной в начале и конце : Нет
При вычислениях CRC использовались нулевые сэмплы : Да
Интерфейс : Встроенный Win32-интерфейс для Win NT/2000
Выходной формат : Пользовательский кодировщик
Выбранный битрейт : 768 kBit/s
Качество : Высокий
Добавление ID3-тега : Нет
Утилита сжатия : C:\Program Files (x86)\Exact Audio Copy\FLAC\FLAC.EXE
Дополнительные параметры : -6 -V -T "ARTIST=%artist%" -T "TITLE=%title%" -T "ALBUM=%albumtitle%" -T "DATE=%year%" -T "TRACKNUMBER=%tracknr%" -T "GENRE=%genre%" -T "COMMENT=%comment%" -T "BAND=%albuminterpret%" -T "ALBUMARTIST=%albuminterpret%" -T "COMPOSER=%composer%" %haslyrics%--tag-from-file=LYRICS="%lyricsfile%"%haslyrics% -T "DISCNUMBER=%cdnumber%" -T "TOTALDISCS=%totalcds%" -T "TOTALTRACKS=%numtracks%" %hascover%--picture="%coverfile%"%hascover% %source% -o %dest%
TOC извлечённого CD
Трек | Старт | Длительность | Начальный сектор | Конечный сектор
---------------------------------------------------------------------
1 | 0:00.00 | 31:02.35 | 0 | 139684
2 | 31:02.35 | 15:42.32 | 139685 | 210366
3 | 46:44.67 | 0:40.20 | 210367 | 213386
4 | 47:25.12 | 2:09.00 | 213387 | 223061
5 | 49:34.12 | 7:22.63 | 223062 | 256274
Характеристики диапазона извлечения и сообщения об ошибках
Выбранный диапазон
Имя файла C:\Users\Sergey\Downloads\Envisioning\William Hooker and Lee Ranaldo - Envisioning.wav
Пиковый уровень 97.2 %
Скорость извлечения 8.4 X
Качество диапазона 100.0 %
CRC теста A0E85A8A
CRC копии A0E85A8A
Копирование... OK
Ошибок не произошло
AccurateRip: сводка
Трек 1 : извлечено точно (доверие 5) [95D802BF] (AR v1)
Трек 2 : извлечено точно (доверие 5) [FF7BA7AA] (AR v1)
Трек 3 : извлечено точно (доверие 5) [80A44B53] (AR v1)
Трек 4 : извлечено точно (доверие 5) [9DD8BDAB] (AR v1)
Трек 5 : извлечено точно (доверие 5) [75D858F0] (AR v1)
Все треки извлечены точно
Конец отчёта
---- CUETools DB Plugin V2.1.3
[CTDB TOCID: T.vt6_wgAiHDmvxF6TfAFi1u1Rk-] disk not present in database, Submit result: T.vt6_wgAiHDmvxF6TfAFi1u1Rk- has been uploaded
==== Контрольная сумма отчёта E0A48F5BD2D397787D466CB7A260B88CAA5A9F8CC05090A371772FEFD1FE08A3 ====
Any questions -> support@pro-jazz.com. По всем вопросам пишите -> support@pro-jazz.com
01:18
143
Нет комментариев. Ваш будет первым!