Вы используете незарегистрированную версию компонента "Вкладки"!

Поиск

(Free Improvisation) Uwe Oberg & Evan Parker - Full Bloom - 2009, FLAC (image+.cue), lossless

Треклист:
Uwe Oberg & Evan Parker / Full Bloom
Жанр: Free Improvisation
Страна-производитель диска: Germany
Год издания диска: 2009
Издатель (лейбл): Jazzwerkstatt
Номер по каталогу: JW092
Аудиокодек: FLAC (*.flac)
Тип рипа: image+.cue
Битрейт аудио: lossless
Продолжительность: 57:37
Источник (релизер): cd
Наличие сканов в содержимом раздачи: нет
Треклист:
1 Red, Then Dark Violet 8:15
2 Amply Spiny 5:45
3 Alternate 15:22
4 Lightly Odourous 14:18
5 Multiple, At Last Black 7:37
6 Very Short, Seldom Extented 5:56
 
Лог создания рипа
Exact Audio Copy V1.0 beta 2 from 29. April 2011
EAC extraction logfile from 3. August 2011, 23:25
Uwe Oberg & Evan Parker / Full Bloom
Used drive : Optiarc DVD RW AD-7170A Adapter: 0 ID: 0
Read mode : Secure
Utilize accurate stream : Yes
Defeat audio cache : Yes
Make use of C2 pointers : No
Read offset correction : 48
Overread into Lead-In and Lead-Out : No
Fill up missing offset samples with silence : Yes
Delete leading and trailing silent blocks : No
Null samples used in CRC calculations : Yes
Used interface : Native Win32 interface for Win NT & 2000
Used output format : User Defined Encoder
Selected bitrate : 320 kBit/s
Quality : High
Add ID3 tag : No
Command line compressor : C:\Program Files\Exact Audio Copy\Flac\flac.exe
Additional command line options : -V -8 -T "Date=%year%" -T "Genre=%genre%" %source%
TOC of the extracted CD
Track | Start | Length | Start sector | End sector
---------------------------------------------------------
1 | 0:01.00 | 8:19.22 | 75 | 37521
2 | 8:20.22 | 5:49.27 | 37522 | 63723
3 | 14:09.49 | 15:26.05 | 63724 | 133178
4 | 29:35.54 | 14:22.01 | 133179 | 197829
5 | 43:57.55 | 7:41.29 | 197830 | 232433
6 | 51:39.09 | 5:56.58 | 232434 | 259191
Range status and errors
Selected range
Filename C:\ЕАС\Uwe Oberg & Evan Parker - Full Bloom.wav
Peak level 100.0 %
Extraction speed 1.9 X
Range quality 99.9 %
Test CRC 1D74288D
Copy CRC 1D74288D
Copy OK
No errors occurred
AccurateRip summary
Track 1 not present in database
Track 2 not present in database
Track 3 not present in database
Track 4 not present in database
Track 5 not present in database
Track 6 not present in database
None of the tracks are present in the AccurateRip database
End of status report
==== Log checksum F4220F404BCD9C81BA479E66E50584826CDE84346D4BF63C3C9A7003F91A04E9 ====
 
Содержание индексной карты (.CUE)
REM GENRE Jazz
REM DATE 2009
REM DISCID 470D7E06
REM COMMENT "ExactAudioCopy v1.0b2"
PERFORMER "Uwe Oberg & Evan Parker"
TITLE "Full Bloom"
FILE "Uwe Oberg & Evan Parker - Full Bloom.flac" WAVE
TRACK 01 AUDIO
TITLE "Red, Then Dark Violet"
PERFORMER "Uwe Oberg & Evan Parker"
ISRC 000000000000
FLAGS DCP
INDEX 00 00:00:00
INDEX 01 00:01:00
TRACK 02 AUDIO
TITLE "Amply Spiny"
PERFORMER "Uwe Oberg & Evan Parker"
ISRC 000000000000
FLAGS DCP
INDEX 00 08:16:22
INDEX 01 08:20:22
TRACK 03 AUDIO
TITLE "Alternate"
PERFORMER "Uwe Oberg & Evan Parker"
ISRC 000000000000
FLAGS DCP
INDEX 00 14:05:49
INDEX 01 14:09:49
TRACK 04 AUDIO
TITLE "Lightly Odourous"
PERFORMER "Uwe Oberg & Evan Parker"
ISRC 000000000000
FLAGS DCP
INDEX 00 29:31:54
INDEX 01 29:35:54
TRACK 05 AUDIO
TITLE "Multiple, At Last Black"
PERFORMER "Uwe Oberg & Evan Parker"
ISRC 000000000000
FLAGS DCP
INDEX 00 43:53:55
INDEX 01 43:57:55
TRACK 06 AUDIO
TITLE "Very Short, Seldom Extented"
PERFORMER "Uwe Oberg & Evan Parker"
ISRC 000000000000
FLAGS DCP
INDEX 00 51:35:09
INDEX 01 51:39:09
Доп. информация: Recorded live at Kulturforum Wiesbaden, Germany June 8, 2008
 
Состав
Piano – Uwe Oberg
Tenor Saxophone – Evan Parker
По всем вопросам пишите личное сообщение пользователю M0p94ok.
15:42
168
Нет комментариев. Ваш будет первым!