Вы используете незарегистрированную версию компонента "Вкладки"!

Поиск

(Free Improvisation, Unit Records) Vyshniauskas, Baumann, Siron - Nuit balte - 1995, FLAC (tracks+.cue), lossless

(Free Improvisation, Unit Records) Vyshniauskas, Baumann, Siron - Nuit balte - 1995, FLAC (tracks+.cue), lossless
Треклист:
Vyshniauskas, Baumann, Siron / Nuit balte
Жанр: Free Improvisation, Unit Records
Страна-производитель диска: Switzerland
Год издания: 1995
Издатель (лейбл): Unit Records
Номер по каталогу: UTR 4063 CD
Аудиокодек: FLAC (*.flac)
Тип рипа: tracks+.cue
Битрейт аудио: lossless
Продолжительность: 45:05
Источник (релизер): Max Monteiro
Наличие сканов в содержимом раздачи: нет
Треклист:
01. Berlin ? 3:52
02. Zürich ! 4:37
03. Départ 19h54 2:53
04. Vilnius… 2:30
05. Tea or Coffee ? 2:23
06. Etwas schneller 2:44
07. Chant 3:14
08. Flucht 3:35
09. Les logiciels ont été testés pour vérifier qu’aucun virus ne les ait contaminés 3:03
10. Stairs 2:15
11. Philosophy 2:44
12. Zwölf 5:05
13. Travail 3:26
14. People 2:44
All the music is freely improvised.
 
Лог создания рипа
Exact Audio Copy V1.0 beta 3 from 29. August 2011
EAC extraction logfile from 4. May 2013, 17:13
Vyshniauskas, Baumann, Siron / Nuit balte
Used drive : SlimtypeeNAU508 5 Adapter: 1 ID: 0
Read mode : Secure
Utilize accurate stream : Yes
Defeat audio cache : Yes
Make use of C2 pointers : No
Read offset correction : 6
Overread into Lead-In and Lead-Out : No
Fill up missing offset samples with silence : Yes
Delete leading and trailing silent blocks : No
Null samples used in CRC calculations : Yes
Used interface : Native Win32 interface for Win NT & 2000
Gap handling : Appended to previous track
Used output format : User Defined Encoder
Selected bitrate : 768 kBit/s
Quality : High
Add ID3 tag : No
Command line compressor : C:\Program Files (x86)\Exact Audio Copy\Flac\flac.exe
Additional command line options : -8 -V -T "ARTIST=%artist%" -T "TITLE=%title%" -T "ALBUM=%albumtitle%" -T "DATE=%year%" -T "TRACKNUMBER=%tracknr%" -T "GENRE=%genre%" -T "PERFORMER=%albuminterpret%" -T "COMPOSER=%composer%" %haslyrics%--tag-from-file=LYRICS="%lyricsfile%"%haslyrics% -T "ALBUMARTIST=%albumartist%" -T "DISCNUMBER=%cdnumber%" -T "TOTALDISCS=%totalcds%" -T "TOTALTRACKS=%numtracks%" -T "COMMENT=%comment%" %source% -o %dest%
TOC of the extracted CD
Track | Start | Length | Start sector | End sector
---------------------------------------------------------
1 | 0:00.00 | 3:51.42 | 0 | 17366
2 | 3:51.42 | 4:37.00 | 17367 | 38141
3 | 8:28.42 | 2:52.50 | 38142 | 51091
4 | 11:21.17 | 2:29.38 | 51092 | 62304
5 | 13:50.55 | 2:23.17 | 62305 | 73046
6 | 16:13.72 | 2:44.15 | 73047 | 85361
7 | 18:58.12 | 3:14.15 | 85362 | 99926
8 | 22:12.27 | 3:34.63 | 99927 | 116039
9 | 25:47.15 | 3:03.25 | 116040 | 129789
10 | 28:50.40 | 2:15.37 | 129790 | 139951
11 | 31:06.02 | 2:44.18 | 139952 | 152269
12 | 33:50.20 | 5:05.12 | 152270 | 175156
13 | 38:55.32 | 3:25.73 | 175157 | 190604
14 | 42:21.30 | 2:43.45 | 190605 | 202874
Track 1
Filename C:\EAC rips\01 - Berlin _.wav
Pre-gap length 0:00:02.00
Peak level 63.6 %
Extraction speed 1.0 X
Track quality 100.0 %
Test CRC E1FE878B
Copy CRC E1FE878B
Track not present in AccurateRip database
Copy OK
Track 2
Filename C:\EAC rips\02 - Zürich !.wav
Pre-gap length 0:00:01.40
Peak level 67.3 %
Extraction speed 1.2 X
Track quality 100.0 %
Test CRC F6D001F8
Copy CRC F6D001F8
Track not present in AccurateRip database
Copy OK
Track 3
Filename C:\EAC rips\03 - Départ 19h54.wav
Pre-gap length 0:00:00.47
Peak level 57.5 %
Extraction speed 1.2 X
Track quality 100.0 %
Test CRC 2D3F9A06
Copy CRC 2D3F9A06
Track not present in AccurateRip database
Copy OK
Track 4
Filename C:\EAC rips\04 - Vilnius....wav
Pre-gap length 0:00:01.25
Peak level 36.5 %
Extraction speed 1.2 X
Track quality 100.0 %
Test CRC D9947D0B
Copy CRC D9947D0B
Track not present in AccurateRip database
Copy OK
Track 5
Filename C:\EAC rips\05 - Tea or Coffee _.wav
Peak level 57.0 %
Extraction speed 1.3 X
Track quality 100.0 %
Test CRC E553CBB3
Copy CRC E553CBB3
Track not present in AccurateRip database
Copy OK
Track 6
Filename C:\EAC rips\06 - Etwas schneller.wav
Peak level 65.9 %
Extraction speed 1.3 X
Track quality 100.0 %
Test CRC BAF63238
Copy CRC BAF63238
Track not present in AccurateRip database
Copy OK
Track 7
Filename C:\EAC rips\07 - Chant.wav
Peak level 50.3 %
Extraction speed 1.3 X
Track quality 99.9 %
Test CRC 09DCB32E
Copy CRC 09DCB32E
Track not present in AccurateRip database
Copy OK
Track 8
Filename C:\EAC rips\08 - Flucht.wav
Pre-gap length 0:00:01.25
Peak level 80.2 %
Extraction speed 1.6 X
Track quality 100.0 %
Test CRC 5B692815
Copy CRC 5B692815
Track not present in AccurateRip database
Copy OK
Track 9
Filename C:\EAC rips\09 - Les logiciels ont été testés pour vérifier qu'aucun virus ne les ait contaminés.wav
Pre-gap length 0:00:01.70
Peak level 44.6 %
Extraction speed 1.6 X
Track quality 100.0 %
Test CRC 0907050A
Copy CRC 0907050A
Track not present in AccurateRip database
Copy OK
Track 10
Filename C:\EAC rips\10 - Stairs.wav
Peak level 65.8 %
Extraction speed 1.5 X
Track quality 100.0 %
Test CRC 3D4BCC9F
Copy CRC 3D4BCC9F
Track not present in AccurateRip database
Copy OK
Track 11
Filename C:\EAC rips\11 - Philosophy.wav
Pre-gap length 0:00:01.17
Peak level 43.5 %
Extraction speed 1.6 X
Track quality 100.0 %
Test CRC 27794915
Copy CRC 27794915
Track not present in AccurateRip database
Copy OK
Track 12
Filename C:\EAC rips\12 - Zwölf.wav
Peak level 59.2 %
Extraction speed 1.9 X
Track quality 100.0 %
Test CRC 17C785CC
Copy CRC 17C785CC
Track not present in AccurateRip database
Copy OK
Track 13
Filename C:\EAC rips\13 - Travail.wav
Pre-gap length 0:00:00.60
Peak level 50.9 %
Extraction speed 1.9 X
Track quality 100.0 %
Test CRC 433AD3C8
Copy CRC 433AD3C8
Track not present in AccurateRip database
Copy OK
Track 14
Filename C:\EAC rips\14 - People.wav
Peak level 53.3 %
Extraction speed 1.8 X
Track quality 100.0 %
Test CRC 18663DDF
Copy CRC 18663DDF
Track not present in AccurateRip database
Copy OK
None of the tracks are present in the AccurateRip database
No errors occurred
End of status report
---- CUETools DB Plugin V2.1.4
[CTDB TOCID: 2ZbqHpnu6FNVWkn6rMJe8sPy8Cg-] disk not present in database
Submit result: 2ZbqHpnu6FNVWkn6rMJe8sPy8Cg- has been uploaded
==== Log checksum F8CF76CFA9BAA1923F606ABB4C8952A5DC82FD2AD59A1AB184208652E0764AA1 ====
 
Содержание индексной карты (.CUE)
REM GENRE Jazz
REM DATE 1995
REM DISCID AF0A910E
REM COMMENT "ExactAudioCopy v1.0b3"
PERFORMER "Vyshniauskas, Baumann, Siron"
TITLE "Nuit balte"
FILE "01 - Berlin _.wav" WAVE
TRACK 01 AUDIO
TITLE "Berlin ?"
PERFORMER "Vyshniauskas, Baumann, Siron"
INDEX 01 00:00:00
TRACK 02 AUDIO
TITLE "Zürich !"
PERFORMER "Vyshniauskas, Baumann, Siron"
INDEX 00 03:50:02
FILE "02 - Zürich !.wav" WAVE
INDEX 01 00:00:00
TRACK 03 AUDIO
TITLE "Départ 19h54"
PERFORMER "Vyshniauskas, Baumann, Siron"
INDEX 00 04:36:28
FILE "03 - Départ 19h54.wav" WAVE
INDEX 01 00:00:00
TRACK 04 AUDIO
TITLE "Vilnius..."
PERFORMER "Vyshniauskas, Baumann, Siron"
INDEX 00 02:51:25
FILE "04 - Vilnius....wav" WAVE
INDEX 01 00:00:00
FILE "05 - Tea or Coffee _.wav" WAVE
TRACK 05 AUDIO
TITLE "Tea or Coffee ?"
PERFORMER "Vyshniauskas, Baumann, Siron"
INDEX 01 00:00:00
FILE "06 - Etwas schneller.wav" WAVE
TRACK 06 AUDIO
TITLE "Etwas schneller"
PERFORMER "Vyshniauskas, Baumann, Siron"
INDEX 01 00:00:00
FILE "07 - Chant.wav" WAVE
TRACK 07 AUDIO
TITLE "Chant"
PERFORMER "Vyshniauskas, Baumann, Siron"
INDEX 01 00:00:00
TRACK 08 AUDIO
TITLE "Flucht"
PERFORMER "Vyshniauskas, Baumann, Siron"
INDEX 00 03:12:65
FILE "08 - Flucht.wav" WAVE
INDEX 01 00:00:00
TRACK 09 AUDIO
TITLE "Les logiciels ont été testés pour vérifier qu'aucun virus ne les ait contaminés"
PERFORMER "Vyshniauskas, Baumann, Siron"
INDEX 00 03:32:68
FILE "09 - Les logiciels ont été testés pour vérifier qu'aucun virus ne les ait contaminés.wav" WAVE
INDEX 01 00:00:00
FILE "10 - Stairs.wav" WAVE
TRACK 10 AUDIO
TITLE "Stairs"
PERFORMER "Vyshniauskas, Baumann, Siron"
INDEX 01 00:00:00
TRACK 11 AUDIO
TITLE "Philosophy"
PERFORMER "Vyshniauskas, Baumann, Siron"
INDEX 00 02:14:20
FILE "11 - Philosophy.wav" WAVE
INDEX 01 00:00:00
FILE "12 - Zwölf.wav" WAVE
TRACK 12 AUDIO
TITLE "Zwölf"
PERFORMER "Vyshniauskas, Baumann, Siron"
INDEX 01 00:00:00
TRACK 13 AUDIO
TITLE "Travail"
PERFORMER "Vyshniauskas, Baumann, Siron"
INDEX 00 05:04:27
FILE "13 - Travail.wav" WAVE
INDEX 01 00:00:00
FILE "14 - People.wav" WAVE
TRACK 14 AUDIO
TITLE "People"
PERFORMER "Vyshniauskas, Baumann, Siron"
INDEX 01 00:00:00
Доп. информация: Recorded at radio DRS, Zürich on November 6-7, 1991 & November 19, 1992.
 
Состав
Petras Vyshniauskas – Soprano Saxophone
Christoph Baumann – Piano
Jacques Siron – Double Bass
Any questions -> support@pro-jazz.com. По всем вопросам пишите -> support@pro-jazz.com
11:52
118
Нет комментариев. Ваш будет первым!