Вы используете незарегистрированную версию компонента "Вкладки"!

Поиск

(Free Improvisation, Tzadik) Derek Bailey - Pieces for Guitar - 2002, FLAC (image+.cue), lossless

Треклист:
Derek Bailey
Жанр: Free Improvisation, Tzadik
Год выпуска диска: 2002
Производитель диска: Tzadik TZ 7080
Аудио кодек: FLAC
Тип рипа: image+.cue
Битрейт аудио: lossless
Источник: what.cd (dmeboyko)
Продолжительность: 38:45
Треклист:
01. G.E.B. (In Memory Of My Father George Edward Bailey) (3:54)
02. Haught (3:13)
03. 3 Pieces For Guitar (3:07)
04. Bits (9:49)
05. Practising: Wow & Stereo (11:05)
06. Improvisation On Guitar Piece No. 1 (3:06)
07. Improvisation On Guitar Piece No. 2 (4:05)
Derek Bailey: guitar
Tracks 1 and 2 recorded in 1966; other tracks recorded 1967.
Cover photograph (reproduced above) of Derek Bailey, circa 1966; photographer not known; design by Heung-Heung Chin.
 
CUE
REM GENRE Free Improvisation
REM DATE 1966-67
REM DISCID 51091507
REM COMMENT ExactAudioCopy v0.99pb5
PERFORMER "Derek Bailey"
TITLE "Pieces For Guitar"
FILE "2002 - Pieces For Guitar.flac" WAVE
TRACK 01 AUDIO
TITLE "G.E.B.(in memory of my father George Edward Bailey)"
INDEX 01 00:00:00
TRACK 02 AUDIO
TITLE "Haught"
INDEX 01 03:56:14
TRACK 03 AUDIO
TITLE "Three Pieces For Guitar"
INDEX 01 07:12:17
TRACK 04 AUDIO
TITLE "Bits"
INDEX 01 10:25:26
TRACK 05 AUDIO
TITLE "Practising: Wow & Stereo"
INDEX 01 20:21:68
TRACK 06 AUDIO
TITLE "Improvisation On Guitar Piece No.1"
INDEX 01 31:30:38
TRACK 07 AUDIO
TITLE "Improvisation On Guitar Piece No.2"
INDEX 01 34:40:26
 
Отчёт EAC
Exact Audio Copy V0.99 prebeta 5d from 4. May 2009
Отчёт EAC об извлечении, выполненном 14. февраля 2010, 2:29
Derek Bailey / Pieces For Guitar
Дисковод: ASUS DRW-2014L1 Adapter: 0 ID: 1
Режим чтения : Достоверность
Использование точного потока : Да
Отключение кэша аудио : Да
Использование указателей C2 : Нет
Коррекция смещения при чтении : 6
Способность читать области Lead-in и Lead-out : Нет
Заполнение пропущенных сэмплов тишиной : Да
Удаление блоков с тишиной в начале и конце : Нет
При вычислениях CRC использовались нулевые сэмплы : Да
Интерфейс : Встроенный Win32-интерфейс для Win NT/2000
Выходной формат : Пользовательский кодировщик
Выбранный битрейт : 1024 kBit/s
Качество : Высокий
Добавление ID3-тэга : Нет
Утилита сжатия : C:\Program Files\Exact Audio Copy\FLAC\FLAC.EXE
Дополнительные параметры : -8 -V %s
TOC извлечённого CD
Трек | Старт | Длительность | Начальный сектор | Конечный сектор
---------------------------------------------------------------------
1 | 0:00.00 | 3:56.14 | 0 | 17713
2 | 3:56.14 | 3:16.03 | 17714 | 32416
3 | 7:12.17 | 3:13.09 | 32417 | 46900
4 | 10:25.26 | 9:56.42 | 46901 | 91642
5 | 20:21.68 | 11:08.45 | 91643 | 141787
6 | 31:30.38 | 3:09.63 | 141788 | 156025
7 | 34:40.26 | 4:05.00 | 156026 | 174400
Характеристики диапазона извлечения и сообщения об ошибках
Выбранный диапазон
Имя файла C:\Derek Bailey\2002 - Pieces For Guitar.wav
Пиковый уровень 98.8 %
Качество диапазона 100.0 %
CRC теста A39C695D
CRC копии A39C695D
Копирование... OK
Ошибок не произошло
AccurateRip: сводка
Трек 1 точное извлечение (доверие 3) [387C35EC]
Трек 2 точное извлечение (доверие 3) [75C1F769]
Трек 3 точное извлечение (доверие 3) [AF130B2A]
Трек 4 точное извлечение (доверие 3) [D60E83D4]
Трек 5 точное извлечение (доверие 3) [FDEF5D2E]
Трек 6 точное извлечение (доверие 3) [4ABF9F2E]
Трек 7 точное извлечение (доверие 3) [462A6B17]
Все треки извлечены точно
Конец отчёта
Any questions -> support@pro-jazz.com. По всем вопросам пишите -> support@pro-jazz.com
02:27
223
Нет комментариев. Ваш будет первым!