Вы используете незарегистрированную версию компонента "Вкладки"!

Поиск

(Free Improvisation) Trio Passeurs (Veronique Magdelenat, Bernard Santacruz, Christian Rollet) - Existences - 2008, FLAC (image+.cue), lossless

Треклист:
Trio Passeurs / Existences
Жанр: Free Improvisation
Страна-производитель диска: France
Год издания: 2008
Издатель (лейбл): Marge
Номер по каталогу: 44
Аудиокодек: FLAC (*.flac)
Тип рипа: image+.cue
Битрейт аудио: lossless
Продолжительность: 52:20
Источник (релизер): cd
Наличие сканов в содержимом раздачи: нет
Треклист:
1 Interstitiel
2 Incursions
3 Petit Caillou
4 Tabaпaut 2
5 Enlaces Par L'ondine
6 A Claire-Voie
7 Finality
 
Лог создания рипа
Exact Audio Copy V1.0 beta 2 from 29. April 2011
EAC extraction logfile from 4. October 2012, 10:20
Trio Passeurs / Existences
Used drive : Optiarc DVD RW AD-7170A Adapter: 0 ID: 0
Read mode : Secure
Utilize accurate stream : Yes
Defeat audio cache : Yes
Make use of C2 pointers : No
Read offset correction : 48
Overread into Lead-In and Lead-Out : No
Fill up missing offset samples with silence : Yes
Delete leading and trailing silent blocks : No
Null samples used in CRC calculations : Yes
Used interface : Native Win32 interface for Win NT & 2000
Used output format : User Defined Encoder
Selected bitrate : 320 kBit/s
Quality : High
Add ID3 tag : No
Command line compressor : C:\Program Files\Exact Audio Copy\Flac\flac.exe
Additional command line options : -V -8 -T "Date=%year%" -T "Genre=%genre%" %source%
TOC of the extracted CD
Track | Start | Length | Start sector | End sector
---------------------------------------------------------
1 | 0:00.00 | 9:02.09 | 0 | 40658
2 | 9:02.09 | 9:36.64 | 40659 | 83922
3 | 18:38.73 | 6:35.21 | 83923 | 113568
4 | 25:14.19 | 8:05.12 | 113569 | 149955
5 | 33:19.31 | 7:35.68 | 149956 | 184148
6 | 40:55.24 | 6:41.14 | 184149 | 214237
7 | 47:36.38 | 4:43.40 | 214238 | 235502
Range status and errors
Selected range
Filename K:\ЕАС\Trio Passeurs - Existences.wav
Peak level 97.8 %
Extraction speed 1.8 X
Range quality 99.9 %
Test CRC B4250BF0
Copy CRC B4250BF0
Copy OK
No errors occurred
AccurateRip summary
Track 1 accurately ripped (confidence 1) [470AC454] (AR v1)
Track 2 accurately ripped (confidence 1) [42400B27] (AR v1)
Track 3 accurately ripped (confidence 1) [3FA6AF4E] (AR v1)
Track 4 accurately ripped (confidence 1) [A0A48210] (AR v1)
Track 5 accurately ripped (confidence 1) [3422B21B] (AR v1)
Track 6 accurately ripped (confidence 1) [B08EFB39] (AR v1)
Track 7 accurately ripped (confidence 1) [471C607A] (AR v1)
All tracks accurately ripped
End of status report
==== Log checksum 310CF6C559BFEF3BD75EE1E57018AAFB836A5A69D7798A344DD1E2D65B59EBE9 ====
 
Содержание индексной карты (.CUE)
REM GENRE Jazz
REM DATE 2008
REM DISCID 4C0C4407
REM COMMENT "ExactAudioCopy v1.0b2"
PERFORMER "Trio Passeurs"
TITLE "Existences"
FILE "Trio Passeurs - Existences.flac" WAVE
TRACK 01 AUDIO
TITLE "Interstitiel"
PERFORMER "Trio Passeurs"
ISRC 000000000000
INDEX 01 00:00:00
TRACK 02 AUDIO
TITLE "Incursions"
PERFORMER "Trio Passeurs"
ISRC 000000000000
INDEX 01 09:02:09
TRACK 03 AUDIO
TITLE "Petit Caillou"
PERFORMER "Trio Passeurs"
ISRC 000000000000
INDEX 01 18:38:73
TRACK 04 AUDIO
TITLE "Tabaпaut 2"
PERFORMER "Trio Passeurs"
ISRC 000000000000
INDEX 01 25:14:19
TRACK 05 AUDIO
TITLE "Enlaces Par L'ondine"
PERFORMER "Trio Passeurs"
ISRC 000000000000
INDEX 01 33:19:31
TRACK 06 AUDIO
TITLE "A Claire-Voie"
PERFORMER "Trio Passeurs"
ISRC 000000000000
INDEX 01 40:55:24
TRACK 07 AUDIO
TITLE "Finality"
PERFORMER "Trio Passeurs"
ISRC 000000000000
INDEX 01 47:36:38
 
Об исполнителе (группе)
After Alexandra Grimal and Maguelone Vidal, Véronique Magdelenat is the third female French saxophonist that makes an album of value this year. Accompanied by Bernard Santacruz on bass and Christian Rollet on drums, she forms the Trio Passeurs. As Magdelenat writes in the liner notes, her music is about "energy, poetry and freedom, finding new forms, taking care of our souls, caressing our bodies, pulling our heart-strings, mixing the colors of life". Quite a program, yet delivered indeed with a right balance between energy and sensitivity. Only one track, "Petit Caillou", has a clear bluesy rhythmic and melodic pattern, while all the other pieces are more in the free improvised form, mostly downtempo, sometimes nervous, but mostly very subtle in the timbral explorations, even to the extent of negotiating emotional complexities in the hardly audible regions, or bringing full voice wails of agony or liberation of energetic tension. The trio works well together to create a single vision, and Magdelenat for sure a new voice to be reckoned with, especially if she can break away completely from form and structure, she's at her best.
 
Состав
Veronique Magdelenat (saxophone alto, & saxophone soprano recourbe)
Bernard Santacruz (contrebasse)
Christian Rollet (batterie & percussions)
Any questions -> support@pro-jazz.com. По всем вопросам пишите -> support@pro-jazz.com
04:08
307
Нет комментариев. Ваш будет первым!