Вы используете незарегистрированную версию компонента "Вкладки"!

Поиск

(Free Improvisation) The Schizo Quartet (Jon Corbett, Nick Stephens) - Don't Answer It - 2006, FLAC (tracks+.cue) lossless

(Free Improvisation) The Schizo Quartet (Jon Corbett, Nick Stephens) - Don't Answer It - 2006, FLAC (tracks+.cue) lossless
Треклист:
The Schizo Quartet / Don't Answer It
Жанр: Free Improvisation
Страна-производитель диска: Великобритания
Год издания диска: 2006
Издатель (лейбл): Loose Torque
Номер по каталогу: LT 013
Страна: Великобритания
Аудио кодек: FLAC (*.flac)
Тип рипа: tracks+.cue
Битрейт аудио: lossless
Продолжительность: 1:01:04
Источник (релизер): другой трекер (iwals)
Наличие сканов в содержимом раздачи: да
Треклист:
1. Loose Talk 9:47
2. Why So Blue? 5:00
3. Don't Answer It
4. (A) You Three Are A Right Pair (B) If Ever There Was One 8:23
5. Sunday Meeting 6:40
6. That Reminds Me 4:26
7. In Vino Veritas 7:12
8. Smoking Room 3:56
9. Happiness Is A Warm Zippo 9:15
 
Лог создания рипа
Exact Audio Copy V0.99 prebeta 4 from 23. January 2008
EAC extraction logfile from 14. September 2008, 19:00
The Schizo Quartet / Don't Answer It
Used drive : _NEC DVD_RW ND-3500AG Adapter: 2 ID: 0
Read mode : Secure
Utilize accurate stream : Yes
Defeat audio cache : Yes
Make use of C2 pointers : No
Read offset correction : 48
Overread into Lead-In and Lead-Out : Yes
Fill up missing offset samples with silence : Yes
Delete leading and trailing silent blocks : No
Null samples used in CRC calculations : Yes
Used interface : Native Win32 interface for Win NT & 2000
Gap handling : Appended to previous track
Used output format : Internal WAV Routines
Sample format : 44.100 Hz; 16 Bit; Stereo
TOC of the extracted CD
Track | Start | Length | Start sector | End sector
---------------------------------------------------------
1 | 0:00.00 | 9:53.01 | 0 | 44475
2 | 9:53.01 | 5:04.48 | 44476 | 67323
3 | 14:57.49 | 4:25.57 | 67324 | 87255
4 | 19:23.31 | 8:27.20 | 87256 | 125300
5 | 27:50.51 | 8:09.47 | 125301 | 162022
6 | 36:00.23 | 4:32.38 | 162023 | 182460
7 | 40:32.61 | 7:18.38 | 182461 | 215348
8 | 47:51.24 | 4:00.38 | 215349 | 233386
9 | 51:51.62 | 9:12.01 | 233387 | 274787
Track 1
Filename E:\New Rip\The Schizo Quartet - Don't Answer It\01 - Loose Tolk.wav
Pre-gap length 0:00:02.00
Peak level 96.6 %
Track quality 100.0 %
Test CRC F3C5A959
Copy CRC F3C5A959
Copy OK
Track 2
Filename E:\New Rip\The Schizo Quartet - Don't Answer It\02 - Why So Blue.wav
Pre-gap length 0:00:06.00
Peak level 94.7 %
Track quality 100.0 %
Test CRC 8FACD8CA
Copy CRC 8FACD8CA
Copy OK
Track 3
Filename E:\New Rip\The Schizo Quartet - Don't Answer It\03 - Don't Answer It.wav
Pre-gap length 0:00:04.00
Peak level 96.5 %
Track quality 100.0 %
Test CRC CD68CC4E
Copy CRC CD68CC4E
Copy OK
Track 4
Filename E:\New Rip\The Schizo Quartet - Don't Answer It\04 - (A) You Three Are A Right Pair (B) Ever There Was One.wav
Pre-gap length 0:00:06.00
Peak level 96.5 %
Track quality 100.0 %
Test CRC D051E35B
Copy CRC D051E35B
Copy OK
Track 5
Filename E:\New Rip\The Schizo Quartet - Don't Answer It\05 - Sunday Meeting.wav
Pre-gap length 0:00:04.00
Peak level 96.5 %
Track quality 100.0 %
Test CRC 3A95BA7C
Copy CRC 3A95BA7C
Copy OK
Track 6
Filename E:\New Rip\The Schizo Quartet - Don't Answer It\06 - That Reminds Me.wav
Pre-gap length 0:00:06.00
Peak level 96.5 %
Track quality 100.0 %
Test CRC 496C690D
Copy CRC 496C690D
Copy OK
Track 7
Filename E:\New Rip\The Schizo Quartet - Don't Answer It\07 - In Vino Veritas.wav
Pre-gap length 0:00:06.00
Peak level 96.5 %
Track quality 100.0 %
Test CRC C6AD0DAD
Copy CRC C6AD0DAD
Copy OK
Track 8
Filename E:\New Rip\The Schizo Quartet - Don't Answer It\08 - Smocking Room.wav
Pre-gap length 0:00:06.00
Peak level 96.5 %
Track quality 100.0 %
Test CRC 7F4A8D74
Copy CRC 7F4A8D74
Copy OK
Track 9
Filename E:\New Rip\The Schizo Quartet - Don't Answer It (2006) [FLAC]\09 - Happiness Is A Warm Zippo.wav
Pre-gap length 0:00:04.00
Peak level 96.5 %
Track quality 100.0 %
Test CRC DD08AF6E
Copy CRC DD08AF6E
Copy OK
No errors occurred
End of status report
 
Содержание индексной карты (.CUE)
REM GENRE Jazz
REM DATE 2006
REM DISCID 800E4F09
REM COMMENT "ExactAudioCopy v0.99pb4"
PERFORMER "The Schizo Quartet"
TITLE "Don't Answer It"
FILE "01 - Loose Tolk.wav" WAVE
TRACK 01 AUDIO
TITLE "Loose Tolk"
PERFORMER "The Schizo Quartet"
INDEX 01 00:00:00
TRACK 02 AUDIO
TITLE "Why So Blue"
PERFORMER "The Schizo Quartet"
INDEX 00 09:47:01
FILE "02 - Why So Blue.wav" WAVE
INDEX 01 00:00:00
TRACK 03 AUDIO
TITLE "Don't Answer It"
PERFORMER "The Schizo Quartet"
INDEX 00 05:00:48
FILE "03 - Don't Answer It.wav" WAVE
INDEX 01 00:00:00
TRACK 04 AUDIO
TITLE "(A) You Three Are A Right Pair (B) Ever There Was One "
PERFORMER "The Schizo Quartet"
INDEX 00 04:19:57
FILE "04 - (A) You Three Are A Right Pair (B) Ever There Was One.wav" WAVE
INDEX 01 00:00:00
TRACK 05 AUDIO
TITLE "Sunday Meeting"
PERFORMER "The Schizo Quartet"
INDEX 00 08:23:20
FILE "05 - Sunday Meeting.wav" WAVE
INDEX 01 00:00:00
TRACK 06 AUDIO
TITLE "That Reminds Me"
PERFORMER "The Schizo Quartet"
INDEX 00 08:03:47
FILE "06 - That Reminds Me.wav" WAVE
INDEX 01 00:00:00
TRACK 07 AUDIO
TITLE "In Vino Veritas"
PERFORMER "The Schizo Quartet"
INDEX 00 04:26:38
FILE "07 - In Vino Veritas.wav" WAVE
INDEX 01 00:00:00
TRACK 08 AUDIO
TITLE "Smocking Room"
PERFORMER "The Schizo Quartet"
INDEX 00 07:12:38
FILE "08 - Smocking Room.wav" WAVE
INDEX 01 00:00:00
TRACK 09 AUDIO
TITLE "Happiness Is A Warm Zippo"
PERFORMER "The Schizo Quartet"
INDEX 00 03:56:38
FILE "09 - Happiness Is A Warm Zippo.wav" WAVE
INDEX 01 00:00:00
 
Лог проверки качества
AUDIOCHECKER v2.0 beta (build 457) - by Dester - opdester@freemail.hu
~~~~~~~~~~~~~~~~~~~~~~~~~~~~~~~~~~
-=== DO NOT EDIT THIS FILE! ===-
Path: ...\The Schizo Quartet - Don't Answer It (2006) [FLAC]
1 -=- 01 - Loose Tolk.flac -=- CDDA (100%)
2 -=- 02 - Why So Blue.flac -=- CDDA (100%)
3 -=- 03 - Don't Answer It.flac -=- CDDA (100%)
4 -=- 04 - (A) You Three Are A Right Pair (B) Ever There Was One.flac -=- CDDA (99%)
5 -=- 05 - Sunday Meeting.flac -=- CDDA (99%)
6 -=- 06 - That Reminds Me.flac -=- CDDA (100%)
7 -=- 07 - In Vino Veritas.flac -=- CDDA (100%)
8 -=- 08 - Smocking Room.flac -=- CDDA (100%)
9 -=- 09 - Happiness Is A Warm Zippo.flac -=- CDDA (100%)
Summary 99,78% CDDA
172230644
 
Состав
Jon Corbett - trumpet
Nick Stephens - bass
По всем вопросам пишите личное сообщение пользователю M0p94ok.
12:03
194
Нет комментариев. Ваш будет первым!