Вы используете незарегистрированную версию компонента "Вкладки"!

Поиск

(Free Improvisation) The Music Improvisation Company (Jamie Muir, Hugh Davies, Evan Parker, Derek Bailey) - 1968-1971 - 1993, FLAC (tracks+.cue) lossless

Треклист:
The Music Improvisation Company 1968-1971
Жанр: Free Improvisation
Страна-производитель диска: Великобритания
Год издания диска: 1993
Издатель (лейбл): Incus
Номер по каталогу: CD12
Страна: Великобритания
Аудио кодек: FLAC (*.flac)
Тип рипа: tracks+.cue
Битрейт аудио: lossless
Продолжительность: 45:13
Источник (релизер): вот.сиди (denti)
Наличие сканов в содержимом раздачи: нет
Треклист:
1. Pointing (07.10)
2. Untitled 3 (06.32)
3. Untitled 4 (04.10)
4. Bedrest (07.38)
5. Its tongue trapped to the rock by a limpet, the water rat succumbed to the incoming tide (08.55)
6. In the victim's absence (10.35)
1 - 4 recorded in mono in London on 4 July 1969. 5 - 6 recorded in stereo in London on 18 June 1970.
 
Лог создания рипа
Exact Audio Copy V1.0 beta 1 from 15. November 2010
EAC extraction logfile from 7. May 2011, 15:23
The Music Improvisation Company / The Music Improvisation Company 1968 - 1971
Used drive : TSSTcorpCD/DVDW SH-S182D Adapter: 1 ID: 0
Read mode : Secure
Utilize accurate stream : Yes
Defeat audio cache : Yes
Make use of C2 pointers : No
Read offset correction : 6
Overread into Lead-In and Lead-Out : No
Fill up missing offset samples with silence : Yes
Delete leading and trailing silent blocks : No
Null samples used in CRC calculations : Yes
Used interface : Native Win32 interface for Win NT & 2000
Gap handling : Appended to previous track
Used output format : User Defined Encoder
Selected bitrate : 128 kBit/s
Quality : High
Add ID3 tag : No
Command line compressor : C:\Program Files\Exact Audio Copy\Flac\flac.exe
Additional command line options : -V -8 -T "artist=%a" -T "title=%t" -T "album=%g" -T "date=%y" -T "tracknumber=%n" -T "genre=%m" %s
TOC of the extracted CD
Track | Start | Length | Start sector | End sector
---------------------------------------------------------
1 | 0:00.70 | 7:19.25 | 70 | 33019
2 | 7:20.20 | 6:32.40 | 33020 | 62459
3 | 13:52.60 | 4:09.30 | 62460 | 81164
4 | 18:02.15 | 7:37.22 | 81165 | 115461
5 | 25:39.37 | 9:01.15 | 115462 | 156051
6 | 34:40.52 | 10:33.18 | 156052 | 203544
Track 1
Filename D:\EAC Rips\The Music Improvisation Company - 1976 - The Music Improvisation Company 1968 - 1971\01 - Pointing.wav
Pre-gap length 0:00:02.93
Peak level 80.8 %
Extraction speed 4.2 X
Track quality 99.9 %
Test CRC B24FC801
Copy CRC B24FC801
Track not present in AccurateRip database
Copy OK
Track 2
Filename D:\EAC Rips\The Music Improvisation Company - 1976 - The Music Improvisation Company 1968 - 1971\02 - untitled 3.wav
Pre-gap length 0:00:04.00
Peak level 83.8 %
Extraction speed 5.7 X
Track quality 100.0 %
Test CRC 7047576E
Copy CRC 7047576E
Track not present in AccurateRip database
Copy OK
Track 3
Filename D:\EAC Rips\The Music Improvisation Company - 1976 - The Music Improvisation Company 1968 - 1971\03 - untitled 4.wav
Pre-gap length 0:00:04.00
Peak level 86.2 %
Extraction speed 5.2 X
Track quality 99.9 %
Test CRC 052F6003
Copy CRC 052F6003
Track not present in AccurateRip database
Copy OK
Track 4
Filename D:\EAC Rips\The Music Improvisation Company - 1976 - The Music Improvisation Company 1968 - 1971\04 - Bedrest.wav
Pre-gap length 0:00:04.00
Peak level 93.6 %
Extraction speed 6.8 X
Track quality 100.0 %
Test CRC 11804E49
Copy CRC 11804E49
Track not present in AccurateRip database
Copy OK
Track 5
Filename D:\EAC Rips\The Music Improvisation Company - 1976 - The Music Improvisation Company 1968 - 1971\05 - Its tongue trapped to the rock by a limpet, the water rat succumbed to the incoming tide.wav
Pre-gap length 0:00:06.00
Peak level 100.0 %
Extraction speed 7.5 X
Track quality 100.0 %
Test CRC 0F5A6EBA
Copy CRC 0F5A6EBA
Track not present in AccurateRip database
Copy OK
Track 6
Filename D:\EAC Rips\The Music Improvisation Company - 1976 - The Music Improvisation Company 1968 - 1971\06 - In the Victim's Absence.wav
Pre-gap length 0:00:04.00
Peak level 88.2 %
Extraction speed 7.8 X
Track quality 99.9 %
Test CRC D9AE350D
Copy CRC D9AE350D
Track not present in AccurateRip database
Copy OK
None of the tracks are present in the AccurateRip database
No errors occurred
End of status report
==== Log checksum 7A57515AF9A91B546463517C02C62F863604054402E463D894927113C60C543B ====
 
Содержание индексной карты (.CUE)
REM GENRE Avantgarde
REM DATE 1976
REM DISCID 3F0A9906
REM COMMENT "ExactAudioCopy v1.0b1"
FILE "01 - Pointing.wav" WAVE
TRACK 01 AUDIO
PREGAP 00:00:70
INDEX 01 00:00:00
TRACK 02 AUDIO
INDEX 00 07:15:25
FILE "02 - untitled 3.wav" WAVE
INDEX 01 00:00:00
TRACK 03 AUDIO
INDEX 00 06:28:40
FILE "03 - untitled 4.wav" WAVE
INDEX 01 00:00:00
TRACK 04 AUDIO
INDEX 00 04:05:30
FILE "04 - Bedrest.wav" WAVE
INDEX 01 00:00:00
TRACK 05 AUDIO
INDEX 00 07:31:22
FILE "05 - Its tongue trapped to the rock by a limpet, the water rat succumbed to the incoming tide.wav" WAVE
INDEX 01 00:00:00
TRACK 06 AUDIO
INDEX 00 08:57:15
FILE "06 - In the Victim's Absence.wav" WAVE
INDEX 01 00:00:00
 
Лог проверки качества
AUDIOCHECKER v2.0 beta (build 457) - by Dester - opdester@freemail.hu
~~~~~~~~~~~~~~~~~~~~~~~~~~~~~~~~~~
-=== DO NOT EDIT THIS FILE! ===-
Path: ...\The Music Improvisation Company - 1976 - The Music Improvisation Company 1968 - 1971
1 -=- 01 - Pointing.flac -=- MPEG (90%)
2 -=- 02 - untitled 3.flac -=- CDDA (49%)
3 -=- 03 - untitled 4.flac -=- MPEG (92%)
4 -=- 04 - Bedrest.flac -=- CDDA (43%)
5 -=- 05 - Its tongue trapped to the rock by a limpet, the water rat succumbed to the incoming tide.flac -=- CDDA (99%)
6 -=- 06 - In the Victim's Absence.flac -=- CDDA (100%)
Summary 51,50% CDDA
224321220
 
Скриншот спектра частот
 
Состав
Jamie Muir, percussion.
Hugh Davies, live electronics & organ.
Evan Parker, soprano saxophone & amplified auto-harp.
Derek Bailey, guitar.
По всем вопросам пишите личное сообщение пользователю M0p94ok.
12:06
164
Нет комментариев. Ваш будет первым!