Вы используете незарегистрированную версию компонента "Вкладки"!

Поиск

(Free Improvisation) Tatsuya Nakatani & Audrey Chen (Susan Alcorn) - Limn - 2005, FLAC (tracks+.cue), lossless

(Free Improvisation) Tatsuya Nakatani & Audrey Chen (Susan Alcorn) - Limn - 2005, FLAC (tracks+.cue), lossless
Треклист:
Tatsuya Nakatani & Audrey Chen / Limn
Жанр: Free Improvisation
Страна-производитель диска: США
Год издания: 2005
Издатель (лейбл): H&H Production
Номер по каталогу: HH-6
Страна: США
Аудиокодек: FLAC (*.flac)
Тип рипа: tracks+.cue
Битрейт аудио: lossless
Продолжительность: 1:02:56
Источник (релизер): вот.сиди (Eaarthling)
Наличие сканов в содержимом раздачи: нет
Треклист:
1 Many Arms
2 Owl Monkey
3 Trilling
4 Thumb And Heel
5 Eating A Volcano
6 Finch
7 Bulk Flow
8 Dragon's Den
9 Liplash
10 Zipped
11 From The Ends
12 Sprawl
13 Kestrel Beating
14 4000 Miles
15 Bivouack
Recorded between May 2004 - April 2005
 
Лог создания рипа
Exact Audio Copy V1.0 beta 3 from 29. August 2011
EAC extraction logfile from 25. November 2011, 0:18
Nakatani-Chen Duo / Limn
Used drive : ASUS DRW-1814BLT Adapter: 6 ID: 0
Read mode : Secure
Utilize accurate stream : Yes
Defeat audio cache : Yes
Make use of C2 pointers : No
Read offset correction : 6
Overread into Lead-In and Lead-Out : No
Fill up missing offset samples with silence : Yes
Delete leading and trailing silent blocks : No
Null samples used in CRC calculations : Yes
Used interface : Native Win32 interface for Win NT & 2000
Gap handling : Appended to previous track
Used output format : User Defined Encoder
Selected bitrate : 1024 kBit/s
Quality : High
Add ID3 tag : No
Command line compressor : C:\bin\flac.exe
Additional command line options : -8 -V -T "ARTIST=%artist%" -T "TITLE=%title%" -T "ALBUM=%albumtitle%" -T "DATE=%year%" -T "TRACKNUMBER=%tracknr1%" -T "GENRE=%genre%" -T "PERFORMER=%albuminterpret%" -T "COMPOSER=%composer%" %haslyrics%--tag-from-file=LYRICS="%lyricsfile%"%haslyrics% -T "ALBUMARTIST=%albumartist%" -T "DISCNUMBER=%cdnumber%" -T "TOTALDISCS=%totalcds%" -T "TOTALTRACKS=%numtracks%" -T "COMMENT=%comment%" %source% -o %dest%
TOC of the extracted CD
Track | Start | Length | Start sector | End sector
---------------------------------------------------------
1 | 0:00.00 | 5:59.21 | 0 | 26945
2 | 5:59.21 | 2:58.41 | 26946 | 40336
3 | 8:57.62 | 1:11.32 | 40337 | 45693
4 | 10:09.19 | 3:32.16 | 45694 | 61609
5 | 13:41.35 | 9:24.56 | 61610 | 103965
6 | 23:06.16 | 2:11.51 | 103966 | 113841
7 | 25:17.67 | 5:55.39 | 113842 | 140505
8 | 31:13.31 | 7:10.11 | 140506 | 172766
9 | 38:23.42 | 4:04.73 | 172767 | 191139
10 | 42:28.40 | 3:46.56 | 191140 | 208145
11 | 46:15.21 | 3:16.44 | 208146 | 222889
12 | 49:31.65 | 3:26.55 | 222890 | 238394
13 | 52:58.45 | 1:58.42 | 238395 | 247286
14 | 54:57.12 | 4:21.52 | 247287 | 266913
15 | 59:18.64 | 3:37.06 | 266914 | 283194
Track 1
Filename C:\temp\_eac\Nakatani-Chen Duo - Limn (2005) [FLAC] {HH-6}\01. Many Arms.wav
Pre-gap length 0:00:02.00
Peak level 70.7 %
Extraction speed 2.7 X
Track quality 100.0 %
Test CRC 1D94D81F
Copy CRC 1D94D81F
Accurately ripped (confidence 2) [B203BE99] (AR v1)
Copy OK
Track 2
Filename C:\temp\_eac\Nakatani-Chen Duo - Limn (2005) [FLAC] {HH-6}\02. Owl Monkey.wav
Pre-gap length 0:00:02.00
Peak level 99.8 %
Extraction speed 2.7 X
Track quality 100.0 %
Test CRC 378B4781
Copy CRC 378B4781
Accurately ripped (confidence 2) [47591515] (AR v1)
Copy OK
Track 3
Filename C:\temp\_eac\Nakatani-Chen Duo - Limn (2005) [FLAC] {HH-6}\03. Trilling.wav
Pre-gap length 0:00:02.00
Peak level 79.3 %
Extraction speed 2.3 X
Track quality 100.0 %
Test CRC 8AFD5500
Copy CRC 8AFD5500
Accurately ripped (confidence 2) [FFC01E31] (AR v1)
Copy OK
Track 4
Filename C:\temp\_eac\Nakatani-Chen Duo - Limn (2005) [FLAC] {HH-6}\04. Thumb and Heel.wav
Peak level 99.8 %
Extraction speed 3.1 X
Track quality 100.0 %
Test CRC 07A6A9D5
Copy CRC 07A6A9D5
Accurately ripped (confidence 2) [C177FD1B] (AR v1)
Copy OK
Track 5
Filename C:\temp\_eac\Nakatani-Chen Duo - Limn (2005) [FLAC] {HH-6}\05. Eating a Volcano.wav
Pre-gap length 0:00:01.74
Peak level 79.3 %
Extraction speed 2.4 X
Track quality 99.9 %
Test CRC B27AF4CC
Copy CRC B27AF4CC
Accurately ripped (confidence 2) [66D33B0F] (AR v1)
Copy OK
Track 6
Filename C:\temp\_eac\Nakatani-Chen Duo - Limn (2005) [FLAC] {HH-6}\06. Finch.wav
Peak level 99.8 %
Extraction speed 2.3 X
Track quality 100.0 %
Test CRC 2C4066D1
Copy CRC 2C4066D1
Accurately ripped (confidence 2) [D10B9972] (AR v1)
Copy OK
Track 7
Filename C:\temp\_eac\Nakatani-Chen Duo - Limn (2005) [FLAC] {HH-6}\07. Bulk Flow.wav
Pre-gap length 0:00:02.00
Peak level 70.7 %
Extraction speed 2.8 X
Track quality 100.0 %
Test CRC 9EAE8E41
Copy CRC 9EAE8E41
Track not present in AccurateRip database
Copy OK
Track 8
Filename C:\temp\_eac\Nakatani-Chen Duo - Limn (2005) [FLAC] {HH-6}\08. Dragon's Den.wav
Peak level 99.8 %
Extraction speed 3.1 X
Track quality 100.0 %
Test CRC C4E6D63B
Copy CRC C4E6D63B
Accurately ripped (confidence 2) [D1C61989] (AR v1)
Copy OK
Track 9
Filename C:\temp\_eac\Nakatani-Chen Duo - Limn (2005) [FLAC] {HH-6}\09. Liplash.wav
Pre-gap length 0:00:04.00
Peak level 70.7 %
Extraction speed 3.0 X
Track quality 100.0 %
Test CRC 95F545AF
Copy CRC 95F545AF
Accurately ripped (confidence 2) [9931A2BC] (AR v1)
Copy OK
Track 10
Filename C:\temp\_eac\Nakatani-Chen Duo - Limn (2005) [FLAC] {HH-6}\10. Zipped.wav
Peak level 99.8 %
Extraction speed 2.7 X
Track quality 99.9 %
Test CRC E0388100
Copy CRC E0388100
Accurately ripped (confidence 2) [B8BACA33] (AR v1)
Copy OK
Track 11
Filename C:\temp\_eac\Nakatani-Chen Duo - Limn (2005) [FLAC] {HH-6}\11. From the Ends.wav
Peak level 99.8 %
Extraction speed 3.1 X
Track quality 100.0 %
Test CRC 3C4A8846
Copy CRC 3C4A8846
Accurately ripped (confidence 2) [07DA2C77] (AR v1)
Copy OK
Track 12
Filename C:\temp\_eac\Nakatani-Chen Duo - Limn (2005) [FLAC] {HH-6}\12. Sprawl.wav
Peak level 99.8 %
Extraction speed 3.2 X
Track quality 100.0 %
Test CRC 27BB5DAB
Copy CRC 27BB5DAB
Accurately ripped (confidence 2) [E35C5396] (AR v1)
Copy OK
Track 13
Filename C:\temp\_eac\Nakatani-Chen Duo - Limn (2005) [FLAC] {HH-6}\13. Kestrel Beating.wav
Peak level 70.7 %
Extraction speed 2.9 X
Track quality 100.0 %
Test CRC 8C2E9AA3
Copy CRC 8C2E9AA3
Accurately ripped (confidence 2) [02A43EE0] (AR v1)
Copy OK
Track 14
Filename C:\temp\_eac\Nakatani-Chen Duo - Limn (2005) [FLAC] {HH-6}\14. 4000 Miles.wav
Pre-gap length 0:00:03.00
Peak level 99.8 %
Extraction speed 3.4 X
Track quality 100.0 %
Test CRC 5D666F23
Copy CRC 5D666F23
Accurately ripped (confidence 2) [E1B8320E] (AR v1)
Copy OK
Track 15
Filename C:\temp\_eac\Nakatani-Chen Duo - Limn (2005) [FLAC] {HH-6}\15. Bivouack.wav
Pre-gap length 0:00:03.37
Peak level 63.0 %
Extraction speed 3.4 X
Track quality 100.0 %
Test CRC E8A5F94D
Copy CRC E8A5F94D
Track not present in AccurateRip database
Copy OK
13 track(s) accurately ripped
2 track(s) not present in the AccurateRip database
Some tracks could not be verified as accurate
No errors occurred
End of status report
---- CUETools DB Plugin V2.1.3
[CTDB TOCID: AvqCM39q3r3A9T801PheTkvuZKw-] found, Submit result: already submitted
[ee77a8d4] (1/1) Accurately ripped
==== Log checksum 71EA3E05842E35637E0848EECA5078BF91C8097BA2EB98E539E43B8328CB0F3F ====
 
Содержание индексной карты (.CUE)
REM GENRE Avantgarde
REM DATE 2005
REM DISCID DE0EBF0F
REM COMMENT "ExactAudioCopy v1.0b3"
PERFORMER "Nakatani-Chen Duo"
TITLE "Limn"
FILE "01. Many Arms.wav" WAVE
TRACK 01 AUDIO
TITLE "Many Arms"
PERFORMER "Nakatani-Chen Duo"
FLAGS DCP
INDEX 01 00:00:00
TRACK 02 AUDIO
TITLE "Owl Monkey"
PERFORMER "Nakatani-Chen Duo"
FLAGS DCP
INDEX 00 05:57:21
FILE "02. Owl Monkey.wav" WAVE
INDEX 01 00:00:00
TRACK 03 AUDIO
TITLE "Trilling"
PERFORMER "Nakatani-Chen Duo"
FLAGS DCP
INDEX 00 02:56:41
FILE "03. Trilling.wav" WAVE
INDEX 01 00:00:00
FILE "04. Thumb and Heel.wav" WAVE
TRACK 04 AUDIO
TITLE "Thumb and Heel"
PERFORMER "Nakatani-Chen Duo"
FLAGS DCP
INDEX 01 00:00:00
TRACK 05 AUDIO
TITLE "Eating a Volcano"
PERFORMER "Nakatani-Chen Duo"
FLAGS DCP
INDEX 00 03:30:17
FILE "05. Eating a Volcano.wav" WAVE
INDEX 01 00:00:00
FILE "06. Finch.wav" WAVE
TRACK 06 AUDIO
TITLE "Finch"
PERFORMER "Nakatani-Chen Duo"
FLAGS DCP
INDEX 01 00:00:00
TRACK 07 AUDIO
TITLE "Bulk Flow"
PERFORMER "Nakatani-Chen Duo"
FLAGS DCP
INDEX 00 02:09:51
FILE "07. Bulk Flow.wav" WAVE
INDEX 01 00:00:00
FILE "08. Dragon's Den.wav" WAVE
TRACK 08 AUDIO
TITLE "Dragon's Den"
PERFORMER "Nakatani-Chen Duo"
FLAGS DCP
INDEX 01 00:00:00
TRACK 09 AUDIO
TITLE "Liplash"
PERFORMER "Nakatani-Chen Duo"
FLAGS DCP
INDEX 00 07:06:11
FILE "09. Liplash.wav" WAVE
INDEX 01 00:00:00
FILE "10. Zipped.wav" WAVE
TRACK 10 AUDIO
TITLE "Zipped"
PERFORMER "Nakatani-Chen Duo"
FLAGS DCP
INDEX 01 00:00:00
FILE "11. From the Ends.wav" WAVE
TRACK 11 AUDIO
TITLE "From the Ends"
PERFORMER "Nakatani-Chen Duo"
FLAGS DCP
INDEX 01 00:00:00
FILE "12. Sprawl.wav" WAVE
TRACK 12 AUDIO
TITLE "Sprawl"
PERFORMER "Nakatani-Chen Duo"
FLAGS DCP
INDEX 01 00:00:00
FILE "13. Kestrel Beating.wav" WAVE
TRACK 13 AUDIO
TITLE "Kestrel Beating"
PERFORMER "Nakatani-Chen Duo"
FLAGS DCP
INDEX 01 00:00:00
TRACK 14 AUDIO
TITLE "4000 Miles"
PERFORMER "Nakatani-Chen Duo"
FLAGS DCP
INDEX 00 01:55:42
FILE "14. 4000 Miles.wav" WAVE
INDEX 01 00:00:00
TRACK 15 AUDIO
TITLE "Bivouack"
PERFORMER "Nakatani-Chen Duo"
FLAGS DCP
INDEX 00 04:18:15
FILE "15. Bivouack.wav" WAVE
INDEX 01 00:00:00
 
Лог проверки качества
AUDIOCHECKER v2.0 beta (build 457) - by Dester - opdester@freemail.hu
~~~~~~~~~~~~~~~~~~~~~~~~~~~~~~~~~~
-=== DO NOT EDIT THIS FILE! ===-
Path: ...\Nakatani-Chen Duo - Limn (2005) [FLAC] {HH-6}
01 -=- 01. Many Arms.flac -=- CDDA (100%)
02 -=- 02. Owl Monkey.flac -=- CDDA (100%)
03 -=- 03. Trilling.flac -=- CDDA (100%)
04 -=- 04. Thumb and Heel.flac -=- CDDA (100%)
05 -=- 05. Eating a Volcano.flac -=- CDDA (42%)
06 -=- 06. Finch.flac -=- CDDA (100%)
07 -=- 07. Bulk Flow.flac -=- CDDA (100%)
08 -=- 08. Dragon's Den.flac -=- CDDA (100%)
09 -=- 09. Liplash.flac -=- CDDA (100%)
10 -=- 10. Zipped.flac -=- CDDA (100%)
11 -=- 11. From the Ends.flac -=- CDDA (100%)
12 -=- 12. Sprawl.flac -=- CDDA (100%)
13 -=- 13. Kestrel Beating.flac -=- CDDA (100%)
14 -=- 14. 4000 Miles.flac -=- CDDA (100%)
15 -=- 15. Bivouack.flac -=- CDDA (100%)
Summary 96,13% CDDA
254198308
 
Состав
Tatsuya Nakatani percussion
Audrey Chen cello, voice
& special guest
Susan Alcorn pedal steel guitar
Any questions -> support@pro-jazz.com. По всем вопросам пишите -> support@pro-jazz.com
01:42
112
Нет комментариев. Ваш будет первым!