Вы используете незарегистрированную версию компонента "Вкладки"!

Поиск

(Free Improvisation) Steve Cohn (Reggie Workman, Jason Hwang, Tom Varner) - Bridge Over The X-Stream - 2000, FLAC (image+.cue), lossless

(Free Improvisation) Steve Cohn (Reggie Workman, Jason Hwang, Tom Varner) - Bridge Over The X-Stream - 2000, FLAC (image+.cue), lossless
Треклист:
Steve Cohn / Bridge Over The X-Stream
Жанр: Free Improvisation
Страна-производитель диска: UK
Год издания диска: 2000
Издатель (лейбл): Leo Records
Номер по каталогу: CD LR 288
Аудиокодек: FLAC (*.flac)
Тип рипа: image+.cue
Битрейт аудио: lossless
Продолжительность: 60:39
Источник (релизер): cd
Наличие сканов в содержимом раздачи: нет
Треклист:
1 Compagni Di Merengue 5:39
2 When Enrico Met The Pink Floyd At Perpignan Station 9:54
3 Ciao Jack! 3:13
4 Isole 7:49
5 Igor 8:44
6 Euphoria 11:12
7 Banana Split 8:05
 
Лог создания рипа
Exact Audio Copy V1.0 beta 2 from 29. April 2011
EAC extraction logfile from 27. December 2011, 21:06
Steve Cohn / Bridge Over The X-Stream
Used drive : Optiarc DVD RW AD-7170A Adapter: 0 ID: 0
Read mode : Secure
Utilize accurate stream : Yes
Defeat audio cache : Yes
Make use of C2 pointers : No
Read offset correction : 48
Overread into Lead-In and Lead-Out : No
Fill up missing offset samples with silence : Yes
Delete leading and trailing silent blocks : No
Null samples used in CRC calculations : Yes
Used interface : Native Win32 interface for Win NT & 2000
Used output format : User Defined Encoder
Selected bitrate : 320 kBit/s
Quality : High
Add ID3 tag : No
Command line compressor : C:\Program Files\Exact Audio Copy\Flac\flac.exe
Additional command line options : -V -8 -T "Date=%year%" -T "Genre=%genre%" %source%
TOC of the extracted CD
Track | Start | Length | Start sector | End sector
---------------------------------------------------------
1 | 0:00.01 | 5:30.49 | 1 | 24799
2 | 5:30.50 | 5:54.21 | 24800 | 51370
3 | 11:24.71 | 12:27.71 | 51371 | 107466
4 | 23:52.67 | 17:23.17 | 107467 | 185708
5 | 41:16.09 | 12:41.48 | 185709 | 242831
6 | 53:57.57 | 6:41.44 | 242832 | 272950
Range status and errors
Selected range
Filename C:\EAC\Downloads\Steve Cohn - Bridge Over The X-Stream.wav
Peak level 96.7 %
Extraction speed 0.8 X
Range quality 99.9 %
Test CRC 340716EF
Copy CRC 340716EF
Copy OK
No errors occurred
AccurateRip summary
Track 1 not present in database
Track 2 not present in database
Track 3 not present in database
Track 4 not present in database
Track 5 not present in database
Track 6 not present in database
None of the tracks are present in the AccurateRip database
End of status report
==== Log checksum 251DD0DC432B2A827D0B5D5A244246671B2615661352E7326939A0F22C4196C1 ====
 
Содержание индексной карты (.CUE)
REM GENRE Jazz
REM DATE 2000
REM DISCID 500E3706
REM COMMENT "ExactAudioCopy v1.0b2"
PERFORMER "Steve Cohn"
TITLE "Bridge Over The X-Stream"
FILE "Steve Cohn - Bridge Over The X-Stream.flac" WAVE
TRACK 01 AUDIO
TITLE "In The Well Of Value"
PERFORMER "Steve Cohn"
FLAGS DCP
INDEX 00 00:00:00
INDEX 01 00:00:01
TRACK 02 AUDIO
TITLE "Don't Sit Down If You Can't Stand Up"
PERFORMER "Steve Cohn"
FLAGS DCP
INDEX 01 05:30:50
TRACK 03 AUDIO
TITLE "Where My Advantages Can Be Advanced"
PERFORMER "Steve Cohn"
FLAGS DCP
INDEX 01 11:24:71
TRACK 04 AUDIO
TITLE "Give Me The Bowl Of Oatmeal"
PERFORMER "Steve Cohn"
FLAGS DCP
INDEX 01 23:52:67
TRACK 05 AUDIO
TITLE "Mommy, Daddy Took The Cake Out"
PERFORMER "Steve Cohn"
FLAGS DCP
INDEX 01 41:16:09
TRACK 06 AUDIO
TITLE "Don't Stand Up If You Can't Sit Down"
PERFORMER "Steve Cohn"
FLAGS DCP
INDEX 01 53:57:57
Доп. информация: Recorded on 4 January 1999 at the Main Space, Knitting Factory, New York
 
Состав
Bass – Reggie Workman
French Horn – Tom Varner
Piano, Shakuhachi, Performer [Hichiriki, Shofar], Percussion – Steve Cohn
Violin – Jason Hwang
Any questions -> support@pro-jazz.com. По всем вопросам пишите -> support@pro-jazz.com
20:21
213
Нет комментариев. Ваш будет первым!