Вы используете незарегистрированную версию компонента "Вкладки"!

Поиск

(Free Improvisation) Spontaneous Music Ensemble (John Stevens, Evan Parker, Trevor Watts, Derek Bailey, Kent Carter) - Quintessence 1 - 1997 (1973-74), FLAC (tracks+.cue), lossless

(Free Improvisation) Spontaneous Music Ensemble (John Stevens, Evan Parker, Trevor Watts, Derek Bailey, Kent Carter) - Quintessence 1 - 1997 (1973-74), FLAC (tracks+.cue), lossless
Треклист:
Spontaneous Music Ensemble - Quintessence 1
Жанр: Free Improvisation
Год выпуска диска: 1997 (1973-74)
Производитель диска: Emanem (4015)
Источник: вот.сиди (beatledennis)
Аудио кодек: FLAC
Тип рипа: tracks+.cue
Битрейт аудио: lossless
Продолжительность: 1:09:08
Трэклист:
1. Forty minutes (40.11)
John Stevens, percussion, cornet;
Evan Parker, soprano saxophone;
Trevor Watts, soprano saxophone;
Derek Bailey, amplified guitar;
Kent Carter, cello.
Recorded at the ICA, London on 3 February 1974
2. Rambunctious 1 (18.36)
3. Rambunctious 2 (04.47)
4. Daa-Oom trio version (05.05)
John Stevens, percussion, voice;
Trevor Watts, soprano saxophone;
Kent Carter, double bass.
Recorded at the Little Theatre Club, London on 18 October 1973
 
Лог создания рипа
X Lossless Decoder version 20100704 (120.4)
XLD extraction logfile from 2010-08-24 22:14:24 +0300
Spontaneous Music Ensemble / Quintessence 1
Used drive : MATSHITA DVD-R UJ-868 (revision KB19)
Use cdparanoia mode : YES (CDParanoia III 10.2 engine)
Disable audio cache : OK for the drive with cache less than 2750KB
Make use of C2 pointers : NO
Read offset correction : 102
Max retry count : 100
Gap status : Analyzed, Appended
TOC of the extracted CD
Track | Start | Length | Start sector | End sector
---------------------------------------------------------
1 | 00:00:00 | 40:30:54 | 0 | 182303
2 | 40:30:54 | 18:40:40 | 182304 | 266343
3 | 59:11:19 | 04:52:63 | 266344 | 288306
4 | 64:04:07 | 05:04:20 | 288307 | 311126
Track 01
Filename : /Volumes/Think Jazz/Spontaneous Music Ensemble - 1997 - Quintessence 1/01 - Forty Minutes.flac
Pre-gap length : 00:02:00
CRC32 hash (test run) : 99F75D89
CRC32 hash : 99F75D89
CRC32 hash (skip zero) : 71CF251A
AccurateRip signature : A6094234
->Track not present in AccurateRip database.
Statistics
Read error : 0
Skipped (treated as error) : 0
Edge jitter error (maybe fixed) : 0
Atom jitter error (maybe fixed) : 0
Drift error (maybe fixed) : 0
Dropped bytes error (maybe fixed) : 0
Duplicated bytes error (maybe fixed) : 0
Inconsistency in error sectors : 0
Track 02
Filename : /Volumes/Think Jazz/Spontaneous Music Ensemble - 1997 - Quintessence 1/02 - Rambunctious 1.flac
Pre-gap length : 00:19:10
CRC32 hash (test run) : 79BE7405
CRC32 hash : 79BE7405
CRC32 hash (skip zero) : 00B39A7B
AccurateRip signature : FB1CE7CE
->Track not present in AccurateRip database.
Statistics
Read error : 0
Skipped (treated as error) : 0
Edge jitter error (maybe fixed) : 0
Atom jitter error (maybe fixed) : 0
Drift error (maybe fixed) : 0
Dropped bytes error (maybe fixed) : 0
Duplicated bytes error (maybe fixed) : 0
Inconsistency in error sectors : 0
Track 03
Filename : /Volumes/Think Jazz/Spontaneous Music Ensemble - 1997 - Quintessence 1/03 - Rambunctious 2.flac
Pre-gap length : 00:04:62
CRC32 hash (test run) : 77D18B20
CRC32 hash : 77D18B20
CRC32 hash (skip zero) : 85DD90B8
AccurateRip signature : A4D2EC6A
->Track not present in AccurateRip database.
Statistics
Read error : 0
Skipped (treated as error) : 0
Edge jitter error (maybe fixed) : 0
Atom jitter error (maybe fixed) : 0
Drift error (maybe fixed) : 0
Dropped bytes error (maybe fixed) : 0
Duplicated bytes error (maybe fixed) : 0
Inconsistency in error sectors : 0
Track 04
Filename : /Volumes/Think Jazz/Spontaneous Music Ensemble - 1997 - Quintessence 1/04 - Daa-oom.flac
Pre-gap length : 00:05:63
CRC32 hash (test run) : 0D45EA11
CRC32 hash : 0D45EA11
CRC32 hash (skip zero) : 385FCD8D
AccurateRip signature : BD9D3ECC
->Track not present in AccurateRip database.
Statistics
Read error : 0
Skipped (treated as error) : 0
Edge jitter error (maybe fixed) : 0
Atom jitter error (maybe fixed) : 0
Drift error (maybe fixed) : 0
Dropped bytes error (maybe fixed) : 0
Duplicated bytes error (maybe fixed) : 0
Inconsistency in error sectors : 0
No errors occurred
End of status report
 
Содержание индексной карты (.CUE)
TITLE "Quintessence 1"
PERFORMER "Spontaneous Music Ensemble"
REM GENRE "Avantgarde"
REM DATE 1997
REM DISCID 32103404
FILE "01 - Forty Minutes.wav" WAVE
TRACK 01 AUDIO
TITLE "Forty Minutes"
INDEX 01 00:00:00
TRACK 02 AUDIO
TITLE "Rambunctious 1"
INDEX 00 40:11:44
FILE "02 - Rambunctious 1.wav" WAVE
INDEX 01 00:00:00
TRACK 03 AUDIO
TITLE "Rambunctious 2"
INDEX 00 18:35:53
FILE "03 - Rambunctious 2.wav" WAVE
INDEX 01 00:00:00
TRACK 04 AUDIO
TITLE "Daa-oom"
INDEX 00 04:47:00
FILE "04 - Daa-oom.wav" WAVE
INDEX 01 00:00:00
 
Отчёт Audiocheckera
AUDIOCHECKER v2.0 beta (build 457) - by Dester - opdester@freemail.hu
~~~~~~~~~~~~~~~~~~~~~~~~~~~~~~~~~~
-=== DO NOT EDIT THIS FILE! ===-
Path: ...\Spontaneous Music Ensemble - 1997 - Quintessence 1
1 -=- 01 - Forty Minutes.flac -=- CDDA (100%)
2 -=- 02 - Rambunctious 1.flac -=- CDDA (100%)
3 -=- 03 - Rambunctious 2.flac -=- CDDA (100%)
4 -=- 04 - Daa-oom.flac -=- CDDA (87%)
Summary 96,75% CDDA
33909332
Quintessence 2
Any questions -> support@pro-jazz.com. По всем вопросам пишите -> support@pro-jazz.com
22:21
164
Нет комментариев. Ваш будет первым!