Вы используете незарегистрированную версию компонента "Вкладки"!

Поиск

(Free Improvisation) Sonore - Cafe OTO / London - 2011, FLAC (tracks+.cue), lossless

Треклист:
Sonore / Cafe OTO / London
Жанр: Free Improvisation
Страна-производитель диска: Austria
Год издания: 2011
Издатель (лейбл): Trost
Номер по каталогу: TR108
Аудиокодек: FLAC (*.flac)
Тип рипа: tracks+.cue
Битрейт аудио: lossless
Продолжительность: 0:38:45
Источник (релизер): CD
Наличие сканов в содержимом раздачи: нет
Треклист:
1. Fragments For An Endgame 5:06
2. (I Was Arranging Her) Arms 15:30
3. Le Chien Perdu 8:26
4. OTO 9:32
 
Лог создания рипа
Exact Audio Copy V1.0 beta 3 from 29. August 2011
EAC extraction logfile from 21. June 2012, 14:11
Sonore / Cafe OTO / London
Used drive : TSSTcorpCDDVDW SH-222AB Adapter: 0 ID: 2
Read mode : Secure
Utilize accurate stream : Yes
Defeat audio cache : Yes
Make use of C2 pointers : No
Read offset correction : 6
Overread into Lead-In and Lead-Out : No
Fill up missing offset samples with silence : Yes
Delete leading and trailing silent blocks : No
Null samples used in CRC calculations : Yes
Used interface : Installed external ASPI interface
Gap handling : Appended to previous track
Used output format : User Defined Encoder
Selected bitrate : 896 kBit/s
Quality : High
Add ID3 tag : No
Command line compressor : D:\Program Files (x86)\Exact Audio Copy\FLAC\FLAC.EXE
Additional command line options : -V -8 -T "Genre=%genre%" -T "Artist=%artist%" -T "Title=%title%" -T "Album=%albumtitle%" -T "Date=%year%" -T "Tracknumber=%tracknr%" -T "Comment=%comment%" %source%
TOC of the extracted CD
Track | Start | Length | Start sector | End sector
---------------------------------------------------------
1 | 0:00.00 | 5:08.47 | 0 | 23146
2 | 5:08.47 | 15:33.40 | 23147 | 93161
3 | 20:42.12 | 8:28.57 | 93162 | 131318
4 | 29:10.69 | 9:34.32 | 131319 | 174400
Track 1
Filename D:\EAC\Sonore\Sonore\Cafe OTO , London\01. Fragments for an Endgame.wav
Pre-gap length 0:00:02.00
Peak level 98.8 %
Extraction speed 0.6 X
Track quality 100.0 %
Test CRC 04602979
Copy CRC 04602979
Copy OK
Track 2
Filename D:\EAC\Sonore\Sonore\Cafe OTO , London\02. I Was Arranging Her Arms.wav
Pre-gap length 0:00:02.37
Peak level 98.8 %
Extraction speed 2.3 X
Track quality 100.0 %
Test CRC 2FD73D6A
Copy CRC 2FD73D6A
Copy OK
Track 3
Filename D:\EAC\Sonore\Sonore\Cafe OTO , London\03. Le Chien Perdu.wav
Pre-gap length 0:00:03.02
Peak level 98.8 %
Extraction speed 2.2 X
Track quality 100.0 %
Test CRC F85BFF37
Copy CRC F85BFF37
Copy OK
Track 4
Filename D:\EAC\Sonore\Sonore\Cafe OTO , London\04. OTO.wav
Pre-gap length 0:00:03.00
Peak level 98.8 %
Extraction speed 2.2 X
Track quality 100.0 %
Test CRC 75B800CE
Copy CRC 75B800CE
Copy OK
No errors occurred
End of status report
==== Log checksum 004007CD7F987CD21182060B4EAA96E9A667395AB23CEE1B1211EE4044000B52 ====
 
Содержание индексной карты (.CUE)
REM GENRE Jazz
REM DATE 2011
REM DISCID 20091504
REM COMMENT "ExactAudioCopy v1.0b3"
CATALOG 9120036680654
PERFORMER "Sonore"
TITLE "Cafe OTO / London"
FILE "Sonore\Cafe OTO , London\01. Fragments for an Endgame.wav" WAVE
TRACK 01 AUDIO
TITLE "Fragments for an Endgame"
PERFORMER "Sonore"
ISRC ATD411113001
INDEX 01 00:00:00
TRACK 02 AUDIO
TITLE "I Was Arranging Her Arms"
PERFORMER "Sonore"
ISRC ATD411113002
INDEX 00 05:06:10
FILE "Sonore\Cafe OTO , London\02. I Was Arranging Her Arms.wav" WAVE
INDEX 01 00:00:00
TRACK 03 AUDIO
TITLE "Le Chien Perdu"
PERFORMER "Sonore"
ISRC ATD411113003
INDEX 00 15:30:38
FILE "Sonore\Cafe OTO , London\03. Le Chien Perdu.wav" WAVE
INDEX 01 00:00:00
TRACK 04 AUDIO
TITLE "OTO"
PERFORMER "Sonore"
ISRC ATD411113004
INDEX 00 08:25:57
FILE "Sonore\Cafe OTO , London\04. OTO.wav" WAVE
INDEX 01 00:00:00
 
Об исполнителе (группе)
Peter Brötzmann - tenor & alto sax, clarinet and tarogato
Ken Vandermark - tenor sax and clarinet
Mats Gustafson - baritone sax
Any questions -> support@pro-jazz.com. По всем вопросам пишите -> support@pro-jazz.com
01:52
191
Нет комментариев. Ваш будет первым!