Вы используете незарегистрированную версию компонента "Вкладки"!

Поиск

(Free Improvisation) Sonic Openings Under Pressure - Muhheankuntuk - 2007, FLAC (tracks+.cue) lossless

Треклист:
Sonic Openings Under Pressure - Muhheankuntuk
Жанр: Free Improvisation
Страна-производитель диска: Portugal
Год издания диска: 2007
Издатель (лейбл): Clean Feed Records
Номер по каталогу: cf 081
Страна: Portugal
Аудио кодек: FLAC (*.flac)
Тип рипа: tracks+.cue
Битрейт аудио: lossless
Продолжительность: 59:18
Источник (релизер): собственный рип с оригинального диска.
Наличие сканов в содержимом раздачи: да
Треклист:
1. Tilting Curvaceous 5:29
2. Abundant 9:58
3. Flash Of The Spirit 7:14
4. The Hardships 2:46
5. Prosified 10:22
6. The Terrible 3s 11:02
7. Permeations Gumvindaboloo 12:26
 
Лог создания рипа
Exact Audio Copy V0.99 prebeta 5 from 4. May 2009
EAC extraction logfile from 15. January 2011, 2:37
Empty Cage Quartet / Stratostrophic
Used drive : TSSTcorpCDDVDW SH-S222A Adapter: 1 ID: 0
Read mode : Secure
Utilize accurate stream : Yes
Defeat audio cache : Yes
Make use of C2 pointers : No
Read offset correction : 6
Overread into Lead-In and Lead-Out : No
Fill up missing offset samples with silence : Yes
Delete leading and trailing silent blocks : No
Null samples used in CRC calculations : Yes
Used interface : Installed external ASPI interface
Gap handling : Appended to previous track
Used output format : User Defined Encoder
Selected bitrate : 768 kBit/s
Quality : High
Add ID3 tag : No
Command line compressor : C:\Tool\Compress\FLAC\flac.exe
Additional command line options : -V -8 -T "ARTIST=%a" -T "TITLE=%t" -T "ALBUM=%g" -T "TRACKNUMBER=%n" -T "GENRE=%m" %s
TOC of the extracted CD
Track | Start | Length | Start sector | End sector
---------------------------------------------------------
1 | 0:00.00 | 10:43.10 | 0 | 48234
2 | 10:43.10 | 2:29.19 | 48235 | 59428
3 | 13:12.29 | 3:06.19 | 59429 | 73397
4 | 16:18.48 | 5:22.57 | 73398 | 97604
5 | 21:41.30 | 6:53.29 | 97605 | 128608
6 | 28:34.59 | 2:10.30 | 128609 | 138388
7 | 30:45.14 | 3:23.03 | 138389 | 153616
8 | 34:08.17 | 14:00.38 | 153617 | 216654
9 | 48:08.55 | 0:48.33 | 216655 | 220287
10 | 48:57.13 | 3:19.52 | 220288 | 235264
11 | 52:16.65 | 17:24.13 | 235265 | 313577
Track 1
Filename C:\! RUTRACKER\ru up\Empty Cage Quartet - Stratostrophic (2008) [FLAC]\01 - Again a Gun Again a Gun Again a Gun.wav
Pre-gap length 0:00:02.00
Peak level 96.6 %
Track quality 100.0 %
Test CRC 089C04A0
Copy CRC 089C04A0
Accurately ripped (confidence 1) [239A50B5]
Copy OK
Track 2
Filename C:\! RUTRACKER\ru up\Empty Cage Quartet - Stratostrophic (2008) [FLAC]\02 - Freedom is on the March.wav
Pre-gap length 0:00:03.00
Peak level 96.6 %
Track quality 100.0 %
Test CRC 7D47389A
Copy CRC 7D47389A
Accurately ripped (confidence 1) [8EC2416E]
Copy OK
Track 3
Filename C:\! RUTRACKER\ru up\Empty Cage Quartet - Stratostrophic (2008) [FLAC]\03 - Old Ladies.wav
Pre-gap length 0:00:03.00
Peak level 96.6 %
Track quality 100.0 %
Test CRC D4835467
Copy CRC D4835467
Accurately ripped (confidence 1) [5250692F]
Copy OK
Track 4
Filename C:\! RUTRACKER\ru up\Empty Cage Quartet - Stratostrophic (2008) [FLAC]\04 - The Power of the Great.wav
Pre-gap length 0:00:03.00
Peak level 96.6 %
Track quality 99.9 %
Test CRC 13B1CB0E
Copy CRC 13B1CB0E
Accurately ripped (confidence 1) [4DBCC416]
Copy OK
Track 5
Filename C:\! RUTRACKER\ru up\Empty Cage Quartet - Stratostrophic (2008) [FLAC]\05 - We Are All Tomorrow's Food.wav
Pre-gap length 0:00:03.00
Peak level 96.6 %
Track quality 99.9 %
Test CRC 0DAE452B
Copy CRC 0DAE452B
Accurately ripped (confidence 1) [5428A4A6]
Copy OK
Track 6
Filename C:\! RUTRACKER\ru up\Empty Cage Quartet - Stratostrophic (2008) [FLAC]\06 - Steps of the Ordinarily Unordinary.wav
Pre-gap length 0:00:03.00
Peak level 96.6 %
Track quality 100.0 %
Test CRC 9A36A8A6
Copy CRC 9A36A8A6
Accurately ripped (confidence 1) [4C04BF43]
Copy OK
Track 7
Filename C:\! RUTRACKER\ru up\Empty Cage Quartet - Stratostrophic (2008) [FLAC]\07 - Aurobindo.wav
Pre-gap length 0:00:03.00
Peak level 93.7 %
Track quality 100.0 %
Test CRC 78A4A9C2
Copy CRC 78A4A9C2
Accurately ripped (confidence 1) [05BEC6EA]
Copy OK
Track 8
Filename C:\! RUTRACKER\ru up\Empty Cage Quartet - Stratostrophic (2008) [FLAC]\08 - Through the Doorways of Escape Come the Footsteps of Capture.wav
Pre-gap length 0:00:03.00
Peak level 96.6 %
Track quality 100.0 %
Test CRC CD35A984
Copy CRC CD35A984
Accurately ripped (confidence 1) [23977930]
Copy OK
Track 9
Filename C:\! RUTRACKER\ru up\Empty Cage Quartet - Stratostrophic (2008) [FLAC]\09 - Beedie and Bob.wav
Pre-gap length 0:00:03.00
Peak level 95.1 %
Track quality 100.0 %
Test CRC 9D74688D
Copy CRC 9D74688D
Accurately ripped (confidence 1) [858DAE94]
Copy OK
Track 10
Filename C:\! RUTRACKER\ru up\Empty Cage Quartet - Stratostrophic (2008) [FLAC]\10 - The Illusion of Transparency.wav
Pre-gap length 0:00:03.00
Peak level 96.6 %
Track quality 100.0 %
Test CRC E1F2EA80
Copy CRC E1F2EA80
Accurately ripped (confidence 1) [9051694C]
Copy OK
Track 11
Filename C:\! RUTRACKER\ru up\Empty Cage Quartet - Stratostrophic (2008) [FLAC]\11 - Don't Hesitate to Change Your Mind.wav
Pre-gap length 0:00:03.00
Peak level 96.6 %
Track quality 100.0 %
Test CRC 8402E8B3
Copy CRC 8402E8B3
Accurately ripped (confidence 1) [1EBBA28D]
Copy OK
All tracks accurately ripped
No errors occurred
End of status report
 
Содержание индексной карты (.CUE)
REM GENRE Avantgarde
REM DATE 2008
REM DISCID A010550B
REM COMMENT "ExactAudioCopy v0.99pb5"
PERFORMER "Empty Cage Quartet"
TITLE "Stratostrophic"
FILE "01 - Again a Gun Again a Gun Again a Gun.wav" WAVE
TRACK 01 AUDIO
TITLE "Again a Gun Again a Gun Again a Gun"
PERFORMER "Empty Cage Quartet"
INDEX 01 00:00:00
TRACK 02 AUDIO
TITLE "Freedom is on the March"
PERFORMER "Empty Cage Quartet"
INDEX 00 10:40:10
FILE "02 - Freedom is on the March.wav" WAVE
INDEX 01 00:00:00
TRACK 03 AUDIO
TITLE "Old Ladies"
PERFORMER "Empty Cage Quartet"
INDEX 00 02:26:19
FILE "03 - Old Ladies.wav" WAVE
INDEX 01 00:00:00
TRACK 04 AUDIO
TITLE "The Power of the Great"
PERFORMER "Empty Cage Quartet"
INDEX 00 03:03:19
FILE "04 - The Power of the Great.wav" WAVE
INDEX 01 00:00:00
TRACK 05 AUDIO
TITLE "We Are All Tomorrow's Food"
PERFORMER "Empty Cage Quartet"
INDEX 00 05:19:57
FILE "05 - We Are All Tomorrow's Food.wav" WAVE
INDEX 01 00:00:00
TRACK 06 AUDIO
TITLE "Steps of the Ordinarily Unordinary"
PERFORMER "Empty Cage Quartet"
INDEX 00 06:50:29
FILE "06 - Steps of the Ordinarily Unordinary.wav" WAVE
INDEX 01 00:00:00
TRACK 07 AUDIO
TITLE "Aurobindo"
PERFORMER "Empty Cage Quartet"
INDEX 00 02:07:30
FILE "07 - Aurobindo.wav" WAVE
INDEX 01 00:00:00
TRACK 08 AUDIO
TITLE "Through the Doorways of Escape Come the Footsteps of Capture"
PERFORMER "Empty Cage Quartet"
INDEX 00 03:20:03
FILE "08 - Through the Doorways of Escape Come the Footsteps of Capture.wav" WAVE
INDEX 01 00:00:00
TRACK 09 AUDIO
TITLE "Beedie and Bob"
PERFORMER "Empty Cage Quartet"
INDEX 00 13:57:38
FILE "09 - Beedie and Bob.wav" WAVE
INDEX 01 00:00:00
TRACK 10 AUDIO
TITLE "The Illusion of Transparency"
PERFORMER "Empty Cage Quartet"
INDEX 00 00:45:33
FILE "10 - The Illusion of Transparency.wav" WAVE
INDEX 01 00:00:00
TRACK 11 AUDIO
TITLE "Don't Hesitate to Change Your Mind"
PERFORMER "Empty Cage Quartet"
INDEX 00 03:16:52
FILE "11 - Don't Hesitate to Change Your Mind.wav" WAVE
INDEX 01 00:00:00
Доп. информация:
Recorded June 13, 2006 at the Park West Studios Brooklyn, NY
 
Об альбоме (сборнике)
The title of this CD by the Sonic Openings Under Pressure troupe is the term used by the Lenape tribe to name the Hudson River, and it means "river that flows two ways". The music acts accordingly, and surely is a New York product. There are two flows here - one is freedom (as in "free jazz" and "free improvisation"), the other is form (established by structure and composition). Everything happening in these tracks has those two interactive sides; one open, the second closed in such a way that some materials are getting out, going very far away, while others are coming in, adjusting to the roots and identity of the "great black tradition," with a conscious and determined attitude. And this intentionality means that the parameters are even more evident. Alto saxophonist Patrick Brennan is the mentor of the project, and with him we find a rhythm section once involved with Charles Gayle: bassist Hilliard Greene and drummer David Pleasant. This is sufficient indication that "Muhheakuntuk" is a recording of Fire Music, though there's much more in the flux, because we can't reduce these sounds to just one thing. Brennan values the nuance factor, and that's why he inscribes himself in a lineage formed by the jazz stylists Duke Ellington, Thelonious Monk, Charles Mingus, Ornette Coleman and Henry Threadgill. Greene has a visceral side, but he's also a master in the art of subtilty we call "groove." Pleasant, an expert in polyrhythm very aware of the different music families in the percussion world, from the Gullah-Geechee culture (the oldest African one in America), to hip-hop, is known for his asymmetric and complex beats. So, if your foot taps and your heart rejoices with this music, your mind will awaken.
 
Состав
David Pleasant - percussion, harmonica, voice
Hilliard Greene - bass
Patrick Brennan - alto sax
По всем вопросам пишите личное сообщение пользователю M0p94ok.
08:27
181
Нет комментариев. Ваш будет первым!