Поиск

(Free Improvisation, Post-Bop, Modern Jazz, Contemporary Jazz) [CD] Kari Heinilä (Heinila), Severi Pyysalo, Uffe Krokfors, Edward Vesala - Lill' Lisa - 2003, FLAC (tracks+.cue), lossless

(Free Improvisation, Post-Bop, Modern Jazz, Contemporary Jazz) [CD] Kari Heinilä (Heinila), Severi Pyysalo, Uffe Krokfors, Edward Vesala - Lill' Lisa - 2003, FLAC (tracks+.cue), lossless
Kari Heinilä, Severi Pyysalo, Uffe Krokfors, Edward Vesala - Lill' Lisa
Жанр: Free Improvisation, Post-Bop, Modern Jazz, Contemporary Jazz
Носитель: CD
Страна-производитель диска (релиза): Finland
Год издания: 2003
Издатель (лейбл): Abovoice
Номер по каталогу: Abovoice-1012
Страна исполнителя (группы): Finland
Аудиокодек: FLAC (*.flac)
Тип рипа: tracks+.cue
Битрейт аудио: lossless
Продолжительность: 55:20
Источник (релизер): what.cd (Negative_Creep )
Наличие сканов в содержимом раздачи: front-back
Треклист:
01. Det stod en lind (07:57)
02. Makaki (07:51)
03. Lill' Lisa (06:02)
04. Satzmo (07:51)
05. Canzonetta (07:03)
06. Marionette (03:27)
07. Piece #2 (06:29)
08. Alabaster (08:40)
 
Лог создания рипа
Exact Audio Copy V1.0 beta 2 from 29. April 2011
EAC extraction logfile from 3. April 2012, 12:06
Kari Heinilä / Lill' Lisa
Used drive : TSSTcorpCDDVDW SH-S223L Adapter: 1 ID: 1
Read mode : Secure
Utilize accurate stream : Yes
Defeat audio cache : Yes
Make use of C2 pointers : No
Read offset correction : 6
Overread into Lead-In and Lead-Out : No
Fill up missing offset samples with silence : Yes
Delete leading and trailing silent blocks : No
Null samples used in CRC calculations : Yes
Used interface : Native Win32 interface for Win NT & 2000
Gap handling : Appended to previous track
Used output format : User Defined Encoder
Selected bitrate : 896 kBit/s
Quality : High
Add ID3 tag : No
Command line compressor : C:\Program Files (x86)\Exact Audio Copy\Flac\flac.exe
Additional command line options : -8 -V -T "ARTIST=%artist%" -T "TITLE=%title%" -T "ALBUM=%albumtitle%" -T "DATE=%year%" -T "TRACKNUMBER=%tracknr%" -T "GENRE=%genre%" -T "PERFORMER=%albuminterpret%" -T "COMPOSER=%composer%" %haslyrics%--tag-from-file=LYRIC
TOC of the extracted CD
Track | Start | Length | Start sector | End sector
---------------------------------------------------------
1 | 0:00.00 | 7:58.65 | 0 | 35914
2 | 7:58.65 | 7:54.02 | 35915 | 71466
3 | 15:52.67 | 6:04.70 | 71467 | 98836
4 | 21:57.62 | 7:53.38 | 98837 | 134349
5 | 29:51.25 | 7:06.70 | 134350 | 166369
6 | 36:58.20 | 3:30.37 | 166370 | 182156
7 | 40:28.57 | 6:33.15 | 182157 | 211646
8 | 47:01.72 | 8:40.18 | 211647 | 250664
Track 1
Filename M:\Music\What 3\Kari Heinilä - Lill' Lisa (2003) [FLAC]\01 - Det stod en lind.wav
Pre-gap length 0:00:02.00
Peak level 98.6 %
Extraction speed 4.8 X
Track quality 100.0 %
Test CRC 8C9E084A
Copy CRC 8C9E084A
Track not present in AccurateRip database
Copy OK
Track 2
Filename M:\Music\What 3\Kari Heinilä - Lill' Lisa (2003) [FLAC]\02 - Makaki.wav
Pre-gap length 0:00:01.24
Peak level 98.7 %
Extraction speed 5.8 X
Track quality 100.0 %
Test CRC 88B90643
Copy CRC 88B90643
Track not present in AccurateRip database
Copy OK
Track 3
Filename M:\Music\What 3\Kari Heinilä - Lill' Lisa (2003) [FLAC]\03 - Lill' Lisa.wav
Pre-gap length 0:00:02.76
Peak level 98.8 %
Extraction speed 6.4 X
Track quality 100.0 %
Test CRC 4F987E03
Copy CRC 4F987E03
Track not present in AccurateRip database
Copy OK
Track 4
Filename M:\Music\What 3\Kari Heinilä - Lill' Lisa (2003) [FLAC]\04 - Satzmo.wav
Pre-gap length 0:00:02.36
Peak level 99.1 %
Extraction speed 7.1 X
Track quality 100.0 %
Test CRC 87D13856
Copy CRC 87D13856
Track not present in AccurateRip database
Copy OK
Track 5
Filename M:\Music\What 3\Kari Heinilä - Lill' Lisa (2003) [FLAC]\05 - Canzonetta.wav
Pre-gap length 0:00:01.84
Peak level 98.7 %
Extraction speed 6.6 X
Track quality 99.9 %
Test CRC 2565A532
Copy CRC 2565A532
Track not present in AccurateRip database
Copy OK
Track 6
Filename M:\Music\What 3\Kari Heinilä - Lill' Lisa (2003) [FLAC]\06 - Marionette.wav
Pre-gap length 0:00:03.77
Peak level 92.3 %
Extraction speed 5.7 X
Track quality 99.9 %
Test CRC 70438BD2
Copy CRC 70438BD2
Track not present in AccurateRip database
Copy OK
Track 7
Filename M:\Music\What 3\Kari Heinilä - Lill' Lisa (2003) [FLAC]\07 - Piece #2.wav
Pre-gap length 0:00:02.76
Peak level 98.7 %
Extraction speed 8.4 X
Track quality 100.0 %
Test CRC A906CCDD
Copy CRC A906CCDD
Track not present in AccurateRip database
Copy OK
Track 8
Filename M:\Music\What 3\Kari Heinilä - Lill' Lisa (2003) [FLAC]\08 - Alabaster.wav
Pre-gap length 0:00:03.56
Peak level 98.7 %
Extraction speed 8.0 X
Track quality 99.9 %
Test CRC 1FBC6AF1
Copy CRC 1FBC6AF1
Track not present in AccurateRip database
Copy OK
None of the tracks are present in the AccurateRip database
No errors occurred
End of status report
==== Log checksum 120500BFBDE14E039AAD986ABD782171502EB62B917A779AEB0C07A86B600561 ====
 
Содержание индексной карты (.CUE)
REM GENRE Jazz
REM DATE 2003
REM DISCID 600D0E08
REM COMMENT "ExactAudioCopy v1.0b2"
PERFORMER "Kari Heinilä"
TITLE "Lill' Lisa"
FILE "01 - Det stod en lind.flac" WAVE
TRACK 01 AUDIO
TITLE "Det stod en lind"
PERFORMER "Kari Heinilä"
ISRC FINWW0300001
INDEX 01 00:00:00
TRACK 02 AUDIO
TITLE "Makaki"
PERFORMER "Kari Heinilä"
ISRC FINWW0300002
INDEX 00 07:57:47
FILE "02 - Makaki.flac" WAVE
INDEX 01 00:00:00
TRACK 03 AUDIO
TITLE "Lill' Lisa"
PERFORMER "Kari Heinilä"
ISRC FINWW0300003
INDEX 00 07:51:20
FILE "03 - Lill' Lisa.flac" WAVE
INDEX 01 00:00:00
TRACK 04 AUDIO
TITLE "Satzmo"
PERFORMER "Kari Heinilä"
ISRC FINWW0300004
INDEX 00 06:02:43
FILE "04 - Satzmo.flac" WAVE
INDEX 01 00:00:00
TRACK 05 AUDIO
TITLE "Canzonetta"
PERFORMER "Kari Heinilä"
ISRC FINWW0300005
INDEX 00 07:51:50
FILE "05 - Canzonetta.flac" WAVE
INDEX 01 00:00:00
TRACK 06 AUDIO
TITLE "Marionette"
PERFORMER "Kari Heinilä"
ISRC FINWW0300006
INDEX 00 07:03:12
FILE "06 - Marionette.flac" WAVE
INDEX 01 00:00:00
TRACK 07 AUDIO
TITLE "Piece #2"
PERFORMER "Kari Heinilä"
ISRC FINWW0300007
INDEX 00 03:27:55
FILE "07 - Piece #2.flac" WAVE
INDEX 01 00:00:00
TRACK 08 AUDIO
TITLE "Alabaster"
PERFORMER "Kari Heinilä"
ISRC FINWW0300008
INDEX 00 06:29:48
FILE "08 - Alabaster.flac" WAVE
INDEX 01 00:00:00
 
Лог проверки качества
AUDIOCHECKER v2.0 beta (build 457) - by Dester - opdester@freemail.hu
~~~~~~~~~~~~~~~~~~~~~~~~~~~~~~~~~~
-=== DO NOT EDIT THIS FILE! ===-
Path: ...\Kari Heinila - Lill' Lisa (2003) [FLAC]
1 -=- 01 - Det stod en lind.flac -=- CDDA (100%)
2 -=- 02 - Makaki.flac -=- CDDA (100%)
3 -=- 03 - Lill' Lisa.flac -=- CDDA (100%)
4 -=- 04 - Satzmo.flac -=- CDDA (100%)
5 -=- 05 - Canzonetta.flac -=- CDDA (100%)
6 -=- 06 - Marionette.flac -=- CDDA (100%)
7 -=- 07 - Piece #2.flac -=- CDDA (100%)
8 -=- 08 - Alabaster.flac -=- CDDA (100%)
Summary 100,00% CDDA
255669636
Доп. информация: Последняя запись Эдварда Весалы.
 
Состав
Kari Heinilä - tenor and soprano saxophones
Severi Pyysalo - vibraphone
Uffe Krokfors - bass
Edward Vesala - drums and percussion
20:00
347
Нет комментариев. Ваш будет первым!