Вы используете незарегистрированную версию компонента "Вкладки"!

Поиск

(Free Improvisation, Plainisphare) Yves Massy (w/ Urs Bloechlinger, Ian Gordon-Lennox, Carlos Baumann, Maurice Magnoni, Yves Cerf a. o.) - No hay problema en The Kitchen Orchestra - 1991, FLAC (tracks+.cue), lossless

(Free Improvisation, Plainisphare) Yves Massy (w/ Urs Bloechlinger, Ian Gordon-Lennox, Carlos Baumann, Maurice Magnoni, Yves Cerf a. o.) - No hay problema en The Kitchen Orchestra - 1991, FLAC (tracks+.cue), lossless
Треклист:
Yves Massy / No hay problema en The Kitchen Orchestra
Жанр: Free Improvisation
Страна-производитель диска: Switzerland
Год издания: 1991
Издатель (лейбл): Plainisphare
Номер по каталогу: PL 1267-60 CD
Аудиокодек: FLAC (*.flac)
Тип рипа: tracks+.cue
Битрейт аудио: lossless
Продолжительность: 54:36
Источник (релизер): Max Monteiro
Наличие сканов в содержимом раздачи: нет
Треклист:
01. Hindemitheries 5:45
02. Zeppelin Ltd 6:24
03. Calle negra 3:42
04. Let’s Cool One 5:53
05. Le Retour de 89B4 5:52
06. Marguerite Dufay dans son répertoire, vol. 1 3:08
07. Lou 5:29
08. Clockwise 2:58
09. Et ta noce, Hector ? 4:42
10. The Cheapest Hommage al Señor Thelonious Monk 6:18
11. La cumbia del combo del lobo del Sandro della Junction 4:24
Tous les titres composés et arrangés par Yves Massy sauf « Let’s Cool One » (Th. Monk 32’’/ Yves Massy 5’12’’).
Enregistrement : les 1, 2 et 3 octobre 1990 au Studio 11 RSR Genève.
Ian Gordon-Lennox – trompette
Carlos Baumann – trompette
Claudio Pontiggia – cor
Beat Blaser – tuba
Maurice Magnoni – saxophones ténor et soprano
Yves Cerf – saxophones ténor et soprano
Urs Blöchlinger – saxophones basse et alto
Marc Sierro – saxophones baryton et alto
Raúl Esmerode – percussions, batterie
Yves Massy – trombone
 
Лог создания рипа
Exact Audio Copy V1.0 beta 3 from 29. August 2011
EAC extraction logfile from 30. June 2013, 16:39
Yves Massy / No hay problema en The Kitchen Orchestra
Used drive : SlimtypeeNAU508 5 Adapter: 1 ID: 0
Read mode : Secure
Utilize accurate stream : Yes
Defeat audio cache : Yes
Make use of C2 pointers : No
Read offset correction : 6
Overread into Lead-In and Lead-Out : No
Fill up missing offset samples with silence : Yes
Delete leading and trailing silent blocks : No
Null samples used in CRC calculations : Yes
Used interface : Native Win32 interface for Win NT & 2000
Gap handling : Appended to previous track
Used output format : User Defined Encoder
Selected bitrate : 768 kBit/s
Quality : High
Add ID3 tag : No
Command line compressor : C:\Program Files (x86)\Exact Audio Copy\Flac\flac.exe
Additional command line options : -8 -V -T "ARTIST=%artist%" -T "TITLE=%title%" -T "ALBUM=%albumtitle%" -T "DATE=%year%" -T "TRACKNUMBER=%tracknr%" -T "GENRE=%genre%" -T "PERFORMER=%albuminterpret%" -T "COMPOSER=%composer%" %haslyrics%--tag-from-file=LYRICS="%lyricsfile%"%haslyrics% -T "ALBUMARTIST=%albumartist%" -T "DISCNUMBER=%cdnumber%" -T "TOTALDISCS=%totalcds%" -T "TOTALTRACKS=%numtracks%" -T "COMMENT=%comment%" %source% -o %dest%
TOC of the extracted CD
Track | Start | Length | Start sector | End sector
---------------------------------------------------------
1 | 0:00.00 | 5:45.35 | 0 | 25909
2 | 5:45.35 | 6:24.28 | 25910 | 54737
3 | 12:09.63 | 3:42.35 | 54738 | 71422
4 | 15:52.23 | 5:52.67 | 71423 | 97889
5 | 21:45.15 | 5:52.30 | 97890 | 124319
6 | 27:37.45 | 3:08.10 | 124320 | 138429
7 | 30:45.55 | 5:28.40 | 138430 | 163069
8 | 36:14.20 | 2:57.68 | 163070 | 176412
9 | 39:12.13 | 4:41.62 | 176413 | 197549
10 | 43:54.00 | 6:17.60 | 197550 | 225884
11 | 50:11.60 | 4:24.00 | 225885 | 245684
Track 1
Filename C:\EAC rips\01 - Hindemitheries.wav
Pre-gap length 0:00:02.00
Peak level 90.0 %
Extraction speed 1.1 X
Track quality 100.0 %
Test CRC CA6438CA
Copy CRC CA6438CA
Track not present in AccurateRip database
Copy OK
Track 2
Filename C:\EAC rips\02 - Zeppelin Ltd.wav
Pre-gap length 0:00:00.45
Peak level 90.0 %
Extraction speed 1.3 X
Track quality 100.0 %
Test CRC 40FEDB75
Copy CRC 40FEDB75
Track not present in AccurateRip database
Copy OK
Track 3
Filename C:\EAC rips\03 - Calle negra.wav
Peak level 90.0 %
Extraction speed 1.3 X
Track quality 100.0 %
Test CRC E13A43CE
Copy CRC E13A43CE
Track not present in AccurateRip database
Copy OK
Track 4
Filename C:\EAC rips\04 - Let's Cool One.wav
Pre-gap length 0:00:03.06
Peak level 90.0 %
Extraction speed 1.4 X
Track quality 99.9 %
Test CRC A983C035
Copy CRC A983C035
Track not present in AccurateRip database
Copy OK
Track 5
Filename C:\EAC rips\05 - Le Retour de 89B4.wav
Pre-gap length 0:00:00.32
Peak level 90.0 %
Extraction speed 1.7 X
Track quality 100.0 %
Test CRC 2CC14632
Copy CRC 2CC14632
Track not present in AccurateRip database
Copy OK
Track 6
Filename C:\EAC rips\06 - Marguerite Dufay dans son répertoire, Vol. 1.wav
Pre-gap length 0:00:02.50
Peak level 90.0 %
Extraction speed 1.6 X
Track quality 100.0 %
Test CRC 517C2988
Copy CRC 517C2988
Track not present in AccurateRip database
Copy OK
Track 7
Filename C:\EAC rips\07 - Lou.wav
Pre-gap length 0:00:03.35
Peak level 90.0 %
Extraction speed 1.8 X
Track quality 100.0 %
Test CRC 49B11B37
Copy CRC 49B11B37
Track not present in AccurateRip database
Copy OK
Track 8
Filename C:\EAC rips\08 - Clockwise.wav
Peak level 90.0 %
Extraction speed 1.7 X
Track quality 100.0 %
Test CRC 1FCA5515
Copy CRC 1FCA5515
Track not present in AccurateRip database
Copy OK
Track 9
Filename C:\EAC rips\09 - Et ta noce, Hector _.wav
Pre-gap length 0:00:03.53
Peak level 90.0 %
Extraction speed 1.7 X
Track quality 99.9 %
Test CRC 7FEA3DAD
Copy CRC 7FEA3DAD
Track not present in AccurateRip database
Copy OK
Track 10
Filename C:\EAC rips\10 - The Cheapest Hommage al Señor Thelonious Monk.wav
Pre-gap length 0:00:05.12
Peak level 90.0 %
Extraction speed 1.9 X
Track quality 99.9 %
Test CRC 3AE803C2
Copy CRC 3AE803C2
Track not present in AccurateRip database
Copy OK
Track 11
Filename C:\EAC rips\11 - La cumbia del combo del lobo del Sandro della Junction.wav
Peak level 90.0 %
Extraction speed 2.1 X
Track quality 100.0 %
Test CRC 2389B4E8
Copy CRC 2389B4E8
Track not present in AccurateRip database
Copy OK
None of the tracks are present in the AccurateRip database
No errors occurred
End of status report
---- CUETools DB Plugin V2.1.4
[CTDB TOCID: v2d28AEKpNKarZ9muUlbFPWRF_8-] disk not present in database
Submit result: v2d28AEKpNKarZ9muUlbFPWRF_8- has been uploaded
==== Log checksum 06845724BF755CD84752B18C6CA80293D91A73BF9C625B84ABCE0A60A75D2474 ====
 
Содержание индексной карты (.CUE)
REM GENRE Jazz
REM DATE 1991
REM DISCID 970CCB0B
REM COMMENT "ExactAudioCopy v1.0b3"
PERFORMER "Yves Massy"
TITLE "No hay problema en The Kitchen Orchestra"
FILE "01 - Hindemitheries.wav" WAVE
TRACK 01 AUDIO
TITLE "Hindemitheries"
PERFORMER "Yves Massy"
INDEX 01 00:00:00
TRACK 02 AUDIO
TITLE "Zeppelin Ltd"
PERFORMER "Yves Massy"
INDEX 00 05:44:65
FILE "02 - Zeppelin Ltd.wav" WAVE
INDEX 01 00:00:00
FILE "03 - Calle negra.wav" WAVE
TRACK 03 AUDIO
TITLE "Calle negra"
PERFORMER "Yves Massy"
INDEX 01 00:00:00
TRACK 04 AUDIO
TITLE "Let's Cool One"
PERFORMER "Yves Massy"
INDEX 00 03:39:29
FILE "04 - Let's Cool One.wav" WAVE
INDEX 01 00:00:00
TRACK 05 AUDIO
TITLE "Le Retour de 89B4"
PERFORMER "Yves Massy"
INDEX 00 05:52:35
FILE "05 - Le Retour de 89B4.wav" WAVE
INDEX 01 00:00:00
TRACK 06 AUDIO
TITLE "Marguerite Dufay dans son répertoire, vol. 1"
PERFORMER "Yves Massy"
INDEX 00 05:49:55
FILE "06 - Marguerite Dufay dans son répertoire, vol. 1.wav" WAVE
INDEX 01 00:00:00
TRACK 07 AUDIO
TITLE "Lou"
PERFORMER "Yves Massy"
INDEX 00 03:04:50
FILE "07 - Lou.wav" WAVE
INDEX 01 00:00:00
FILE "08 - Clockwise.wav" WAVE
TRACK 08 AUDIO
TITLE "Clockwise"
PERFORMER "Yves Massy"
INDEX 01 00:00:00
TRACK 09 AUDIO
TITLE "Et ta noce, Hector ?"
PERFORMER "Yves Massy"
INDEX 00 02:54:15
FILE "09 - Et ta noce, Hector _.wav" WAVE
INDEX 01 00:00:00
TRACK 10 AUDIO
TITLE "The Cheapest Hommage al Señor Thelonious Monk"
PERFORMER "Yves Massy"
INDEX 00 04:36:50
FILE "10 - The Cheapest Hommage al Señor Thelonious Monk.wav" WAVE
INDEX 01 00:00:00
FILE "11 - La cumbia del combo del lobo del Sandro della Junction.wav" WAVE
TRACK 11 AUDIO
TITLE "La cumbia del combo del lobo del Sandro della Junction"
PERFORMER "Yves Massy"
INDEX 01 00:00:00
 
Состав
01. Hindemitheries – trombone: Yves Massy
02. Zeppelin Ltd – sax: Yves Cerf
03. Calle negra – batterie: Raúl Esmerode
04. Let’s Cool One – trompette: Ian Gordon-Lennox
05. Le Retour de 89B4 – sax: Maurice Magnoni
06. Marguerite Dufay dans son répertoire, vol. 1
07. Lou – cor: Claudio Pontiggia
08. Clockwise – tuba: Beat Blaser
09. Et ta noce, Hector ? – sax: Marc Sierro
10. The Cheapest Hommage al señor Thelonious Monk – sax: Urs Blöchlinger
11. La cumbia del combo del lobo del Sandro della Junction – trompette: Carlos Baumann
Any questions -> support@pro-jazz.com. По всем вопросам пишите -> support@pro-jazz.com
15:42
156
Нет комментариев. Ваш будет первым!