Вы используете незарегистрированную версию компонента "Вкладки"!

Поиск

(Free Improvisation) Peter Evans - Ich fuhle Luft von anderem Planeten - 2009, FLAC (tracks+.cue), lossless

(Free Improvisation) Peter Evans - Ich fuhle Luft von anderem Planeten - 2009, FLAC (tracks+.cue), lossless
Треклист:
Peter EvansIch fühle Luft von anderem Planeten
Жанр: Free Improvisation
Год выпуска диска: 2009
Производитель диска: Self-released CD-R
Аудио кодек: FLAC
Тип рипа: tracks+.cue
Битрейт аудио: lossless
Источник: сетЪ (вата, скорее всего - не помню я)
Продолжительность: 44:35
Трэклист:
01 - 1
02 - 2
03 - 3
04 - 4
05 - 5
06 - 6
Peter Evans: trumpet
 
CUE
TITLE "Ich fühle Luft von anderem Planeten"
PERFORMER "Peter Evans"
REM DATE 2009
FILE "01 - 1.wav" WAVE
TRACK 01 AUDIO
TITLE "1"
INDEX 01 00:00:00
FILE "02 - 2.wav" WAVE
TRACK 02 AUDIO
TITLE "2"
INDEX 01 00:00:00
FILE "03 - 3.wav" WAVE
TRACK 03 AUDIO
TITLE "3"
INDEX 01 00:00:00
FILE "04 - 4.wav" WAVE
TRACK 04 AUDIO
TITLE "4"
INDEX 01 00:00:00
FILE "05 - 5.wav" WAVE
TRACK 05 AUDIO
TITLE "5"
INDEX 01 00:00:00
FILE "06 - 6.wav" WAVE
TRACK 06 AUDIO
TITLE "6"
INDEX 01 00:00:00
 
XLD extraction logfile
X Lossless Decoder version 20091225 (115.1)
XLD extraction logfile from 2009-12-29 11:18:10 +0200
Peter Evans / Ich fГјhle Luft von anderem Planeten
Used drive : MATSHITA DVD-R UJ-868 (revision KB19)
Use cdparanoia mode : YES (CDParanoia III 10.2 engine)
Disable audio cache : OK for the drive with cache less than 2750KB
Make use of C2 pointers : NO
Read offset correction : 102
Max retry count : 100
TOC of the extracted CD
Track | Start | Length | Start sector | End sector
---------------------------------------------------------
1 | 00:00:00 | 06:29:00 | 0 | 29174
2 | 06:29:00 | 06:35:37 | 29175 | 58836
3 | 13:04:37 | 04:56:37 | 58837 | 81073
4 | 18:00:74 | 12:37:00 | 81074 | 137848
5 | 30:37:74 | 09:11:00 | 137849 | 179173
6 | 39:48:74 | 04:46:32 | 179174 | 200655
Track 01
Filename : /Users/owner/Desktop/Muzak/Peter Evans - 2009 - Ich fuМ€hle Luft von anderem Planeten/01 - 1.flac
Pre-gap length : 00:02:00
CRC32 hash (test run) : 77E873E4
CRC32 hash : 77E873E4
CRC32 hash (skip zero) : 2D43C07F
AccurateRip signature : 28ECE54A
->Track not present in AccurateRip database.
Statistics
Read error : 0
Skipped (treated as error) : 0
Edge jitter error (maybe fixed) : 0
Atom jitter error (maybe fixed) : 0
Drift error (maybe fixed) : 0
Dropped bytes error (maybe fixed) : 0
Duplicated bytes error (maybe fixed) : 0
Inconsistency in error sectors : 0
Track 02
Filename : /Users/owner/Desktop/Muzak/Peter Evans - 2009 - Ich fuМ€hle Luft von anderem Planeten/02 - 2.flac
CRC32 hash (test run) : 52A07453
CRC32 hash : 52A07453
CRC32 hash (skip zero) : F336CA13
AccurateRip signature : DC28B229
->Track not present in AccurateRip database.
Statistics
Read error : 0
Skipped (treated as error) : 0
Edge jitter error (maybe fixed) : 0
Atom jitter error (maybe fixed) : 0
Drift error (maybe fixed) : 0
Dropped bytes error (maybe fixed) : 0
Duplicated bytes error (maybe fixed) : 0
Inconsistency in error sectors : 0
Track 03
Filename : /Users/owner/Desktop/Muzak/Peter Evans - 2009 - Ich fuМ€hle Luft von anderem Planeten/03 - 3.flac
CRC32 hash (test run) : 9659E064
CRC32 hash : 9659E064
CRC32 hash (skip zero) : 4C6BB5B7
AccurateRip signature : 70BC28A9
->Track not present in AccurateRip database.
Statistics
Read error : 0
Skipped (treated as error) : 0
Edge jitter error (maybe fixed) : 0
Atom jitter error (maybe fixed) : 0
Drift error (maybe fixed) : 0
Dropped bytes error (maybe fixed) : 0
Duplicated bytes error (maybe fixed) : 0
Inconsistency in error sectors : 0
Track 04
Filename : /Users/owner/Desktop/Muzak/Peter Evans - 2009 - Ich fuМ€hle Luft von anderem Planeten/04 - 4.flac
CRC32 hash (test run) : E055D196
CRC32 hash : E055D196
CRC32 hash (skip zero) : 47B28324
AccurateRip signature : 1FAE1551
->Track not present in AccurateRip database.
Statistics
Read error : 0
Skipped (treated as error) : 0
Edge jitter error (maybe fixed) : 0
Atom jitter error (maybe fixed) : 0
Drift error (maybe fixed) : 0
Dropped bytes error (maybe fixed) : 0
Duplicated bytes error (maybe fixed) : 0
Inconsistency in error sectors : 0
Track 05
Filename : /Users/owner/Desktop/Muzak/Peter Evans - 2009 - Ich fuМ€hle Luft von anderem Planeten/05 - 5.flac
CRC32 hash (test run) : 00D23821
CRC32 hash : 00D23821
CRC32 hash (skip zero) : 2F83B7B6
AccurateRip signature : F15E66D2
->Track not present in AccurateRip database.
Statistics
Read error : 0
Skipped (treated as error) : 0
Edge jitter error (maybe fixed) : 0
Atom jitter error (maybe fixed) : 0
Drift error (maybe fixed) : 0
Dropped bytes error (maybe fixed) : 0
Duplicated bytes error (maybe fixed) : 0
Inconsistency in error sectors : 0
Track 06
Filename : /Users/owner/Desktop/Muzak/Peter Evans - 2009 - Ich fuМ€hle Luft von anderem Planeten/06 - 6.flac
CRC32 hash (test run) : 5EE0F424
CRC32 hash : 5EE0F424
CRC32 hash (skip zero) : B49A171C
AccurateRip signature : 548FDE54
->Track not present in AccurateRip database.
Statistics
Read error : 0
Skipped (treated as error) : 0
Edge jitter error (maybe fixed) : 0
Atom jitter error (maybe fixed) : 0
Drift error (maybe fixed) : 0
Dropped bytes error (maybe fixed) : 0
Duplicated bytes error (maybe fixed) : 0
Inconsistency in error sectors : 0
No errors occurred
End of status report
Any questions -> support@pro-jazz.com. По всем вопросам пишите -> support@pro-jazz.com
18:40
131
Нет комментариев. Ваш будет первым!