Вы используете незарегистрированную версию компонента "Вкладки"!

Поиск

(Free Improvisation) Paul Bley - Bill Connors - Jimmy Giuffre - Quiet Song - 1976, FLAC (tracks+.cue) lossless

Треклист:
Paul Bley - Bill Connors - Jimmy Giuffre - Quiet Song
Жанр: Free Improvisation
Страна-производитель диска: Italy
Год издания диска: 1976
Издатель (лейбл): Improvising Artists Inc.
Номер по каталогу: IAI 123 839-2
Страна: Italy
Аудио кодек: FLAC (*.flac)
Тип рипа: tracks+.cue
Битрейт аудио: lossless
Продолжительность: 32:32
Источник (релизер): собственный рип с оригинального диска.
Наличие сканов в содержимом раздачи: да
Треклист:
01. SOLO Jimmy Giuffre/Beach Music BMI 0:56
02. DUET Bill Connors/Pablo Music BMI 4:35
03 .PLAY BLUE Paul Bley/Pablo Music BMI 3:23
04 .CLARINET Jimmy Giuffre/Beach Music BMI 0:52
05 .YEAH, GUITAR Paul Bley/Pablo Music BMI 3:48
06. CAROL Paul Bley/Pablo Music BMI 1:43
07. TRIO Paul Bley/Pablo Music BMI 1:44
08. GOODBYE Gordon Jenkins/Leeds Music Corp.ASCAP 3:34
09. LAURENT Paul Bley/Pablo Music BMI 2:04
10. QUIET SONG Paul Bley/Pablo Music BMI 9:47
 
Лог создания рипа
Exact Audio Copy V0.99 prebeta 5 from 4. May 2009
EAC extraction logfile from 17. December 2010, 23:48
Paul Bley - Bill Conners - Jimmy Giuffre / Quiet Song
Used drive : TSSTcorpCDDVDW SH-S222A Adapter: 1 ID: 0
Read mode : Secure
Utilize accurate stream : Yes
Defeat audio cache : Yes
Make use of C2 pointers : No
Read offset correction : 6
Overread into Lead-In and Lead-Out : No
Fill up missing offset samples with silence : Yes
Delete leading and trailing silent blocks : No
Null samples used in CRC calculations : Yes
Used interface : Native Win32 interface for Win NT & 2000
Gap handling : Appended to previous track
Used output format : User Defined Encoder
Selected bitrate : 768 kBit/s
Quality : High
Add ID3 tag : No
Command line compressor : C:\tool\Audio\Exact Audio Copy\FLAC\FLAC.EXE
Additional command line options : -V -8 -T "ARTIST=%a" -T "TITLE=%t" -T "ALBUM=%g" -T "TRACKNUMBER=%n" -T "GENRE=%m" %s
TOC of the extracted CD
Track | Start | Length | Start sector | End sector
---------------------------------------------------------
1 | 0:00.33 | 1:00.40 | 33 | 4572
2 | 1:00.73 | 4:35.50 | 4573 | 25247
3 | 5:36.48 | 3:21.32 | 25248 | 40354
4 | 8:58.05 | 0:54.00 | 40355 | 44404
5 | 9:52.05 | 3:47.28 | 44405 | 61457
6 | 13:39.33 | 1:43.55 | 61458 | 69237
7 | 15:23.13 | 1:44.42 | 69238 | 77079
8 | 17:07.55 | 3:35.38 | 77080 | 93242
9 | 20:43.18 | 2:05.42 | 93243 | 102659
10 | 22:48.60 | 9:48.48 | 102660 | 146807
Track 1
Filename C:\! RUTRACKER\ru up\Paul Bley - Quiet Song\01 - Solo.wav
Pre-gap length 0:00:02.33
Peak level 56.7 %
Track quality 100.0 %
Test CRC 58414353
Copy CRC 58414353
Accurately ripped (confidence 1) [351CCFC6]
Copy OK
Track 2
Filename C:\! RUTRACKER\ru up\Paul Bley - Quiet Song\02 - Duet.wav
Peak level 80.1 %
Track quality 100.0 %
Test CRC EF33A1B2
Copy CRC EF33A1B2
Accurately ripped (confidence 1) [DDA38D67]
Copy OK
Track 3
Filename C:\! RUTRACKER\ru up\Paul Bley - Quiet Song\03 - Play Blue.wav
Peak level 100.0 %
Track quality 100.0 %
Test CRC 61B0F007
Copy CRC 61B0F007
Accurately ripped (confidence 1) [1FC4431D]
Copy OK
Track 4
Filename C:\! RUTRACKER\ru up\Paul Bley - Quiet Song\04 - Clarinet.wav
Peak level 48.4 %
Track quality 100.0 %
Test CRC 4D2570D8
Copy CRC 4D2570D8
Accurately ripped (confidence 1) [584E8F43]
Copy OK
Track 5
Filename C:\! RUTRACKER\ru up\Paul Bley - Quiet Song\05 - Yeah, Guitar.wav
Peak level 69.9 %
Track quality 100.0 %
Test CRC F6AAB2DF
Copy CRC F6AAB2DF
Accurately ripped (confidence 1) [5E915FAF]
Copy OK
Track 6
Filename C:\! RUTRACKER\ru up\Paul Bley - Quiet Song\06 - Carol.wav
Peak level 73.6 %
Track quality 100.0 %
Test CRC EE39D9A6
Copy CRC EE39D9A6
Accurately ripped (confidence 1) [B3ACF066]
Copy OK
Track 7
Filename C:\! RUTRACKER\ru up\Paul Bley - Quiet Song\07 - Trio.wav
Peak level 58.8 %
Track quality 100.0 %
Test CRC 0C904682
Copy CRC 0C904682
Accurately ripped (confidence 1) [2D87EE39]
Copy OK
Track 8
Filename C:\! RUTRACKER\ru up\Paul Bley - Quiet Song\08 - Goodbye.wav
Peak level 89.9 %
Track quality 99.9 %
Test CRC 5FFF5C1E
Copy CRC 5FFF5C1E
Accurately ripped (confidence 1) [B4BC3F58]
Copy OK
Track 9
Filename C:\! RUTRACKER\ru up\Paul Bley - Quiet Song\09 - Laurent.wav
Peak level 76.3 %
Track quality 100.0 %
Test CRC 4430790D
Copy CRC 4430790D
Accurately ripped (confidence 1) [35D21BBD]
Copy OK
Track 10
Filename C:\! RUTRACKER\ru up\Paul Bley - Quiet Song\10 - Quiet Song.wav
Peak level 100.0 %
Track quality 100.0 %
Test CRC 21E8835C
Copy CRC 21E8835C
Accurately ripped (confidence 1) [74D81771]
Copy OK
All tracks accurately ripped
No errors occurred
End of status report
 
Содержание индексной карты (.CUE)
REM GENRE Jazz
REM DATE 1974
REM DISCID 7107A50A
REM COMMENT "ExactAudioCopy v0.99pb5"
PERFORMER "Paul Bley - Bill Conners - Jimmy Giuffre"
TITLE "Quiet Song"
FILE "01 - Solo.wav" WAVE
TRACK 01 AUDIO
TITLE "Solo"
PERFORMER "Paul Bley - Bill Conners - Jimmy Giuffre"
PREGAP 00:00:33
INDEX 01 00:00:00
FILE "02 - Duet.wav" WAVE
TRACK 02 AUDIO
TITLE "Duet"
PERFORMER "Paul Bley - Bill Conners - Jimmy Giuffre"
INDEX 01 00:00:00
FILE "03 - Play Blue.wav" WAVE
TRACK 03 AUDIO
TITLE "Play Blue"
PERFORMER "Paul Bley - Bill Conners - Jimmy Giuffre"
INDEX 01 00:00:00
FILE "04 - Clarinet.wav" WAVE
TRACK 04 AUDIO
TITLE "Clarinet"
PERFORMER "Paul Bley - Bill Conners - Jimmy Giuffre"
INDEX 01 00:00:00
FILE "05 - Yeah, Guitar.wav" WAVE
TRACK 05 AUDIO
TITLE "Yeah, Guitar"
PERFORMER "Paul Bley - Bill Conners - Jimmy Giuffre"
INDEX 01 00:00:00
FILE "06 - Carol.wav" WAVE
TRACK 06 AUDIO
TITLE "Carol"
PERFORMER "Paul Bley - Bill Conners - Jimmy Giuffre"
INDEX 01 00:00:00
FILE "07 - Trio.wav" WAVE
TRACK 07 AUDIO
TITLE "Trio"
PERFORMER "Paul Bley - Bill Conners - Jimmy Giuffre"
INDEX 01 00:00:00
FILE "08 - Goodbye.wav" WAVE
TRACK 08 AUDIO
TITLE "Goodbye"
PERFORMER "Paul Bley - Bill Conners - Jimmy Giuffre"
INDEX 01 00:00:00
FILE "09 - Laurent.wav" WAVE
TRACK 09 AUDIO
TITLE "Laurent"
PERFORMER "Paul Bley - Bill Conners - Jimmy Giuffre"
INDEX 01 00:00:00
FILE "10 - Quiet Song.wav" WAVE
TRACK 10 AUDIO
TITLE "Quiet Song"
PERFORMER "Paul Bley - Bill Conners - Jimmy Giuffre"
INDEX 01 00:00:00
Доп. информация:
Recorded November 14, 1974
Recording Engineer - Tony May, Generation Sound Studios, NYC
Mixing Engineer - David Baker, Vanguard Recording Society
Winner of the French PRIX de JAZZ
 
Об альбоме (сборнике)
This is a surprisingly introspective session featuring Paul Bley (on piano and electric piano), guitarist Bill Connors (who had recently left Return To Forever) and Jimmy Giuffre (who mostly plays clarinet). The music consists of nine group originals (many of which were freely improvised) and an abstract rendition of the standard "Goodbye." Although there are some interesting instrumental colors, much of the music rambles and wanders without much purpose and the results are rather inconclusive and slightly disappointing considering the talent involved.
 
Состав
Paul Bley - acoustic piano and fender rhodes electric piano
Bill Connors - acoustic guitar
Jimmy Giuffre - alto flute, clarinet
По всем вопросам пишите личное сообщение пользователю M0p94ok.
06:51
224
Нет комментариев. Ваш будет первым!