Вы используете незарегистрированную версию компонента "Вкладки"!

Поиск

(Free Improvisation) Open Loose - Strange Unison - 2007, FLAC (tracks+.cue) lossless

Треклист:
Open Loose - Strange Unison
Жанр: Free Improvisation
Страна-производитель диска: USA
Год издания диска: 2007
Издатель (лейбл): Radio Legs Music
Номер по каталогу: RL 013
Страна: USA
Аудио кодек: FLAC (*.flac)
Тип рипа: tracks+.cue
Битрейт аудио: lossless
Продолжительность: 50:57
Источник (релизер): собственный рип с оригинального диска.
Наличие сканов в содержимом раздачи: да
Треклист:
01. Graveling 6:37
02. Blue Light Down The Line 9:31
03. Sonic Rights 5:18
04. CBJ 3:54
05. Illustrate 4:47
06. Circling 4:47
07. Johns and Marks 4:36
08. Irrational 4:18
09. Silent Shutter 6:05
 
Лог создания рипа
Exact Audio Copy V0.99 prebeta 5 from 4. May 2009
EAC extraction logfile from 31. December 2010, 22:09
Open Loose / Strange Unison
Used drive : TSSTcorpCDDVDW SH-S222A Adapter: 1 ID: 0
Read mode : Secure
Utilize accurate stream : Yes
Defeat audio cache : Yes
Make use of C2 pointers : No
Read offset correction : 6
Overread into Lead-In and Lead-Out : No
Fill up missing offset samples with silence : Yes
Delete leading and trailing silent blocks : No
Null samples used in CRC calculations : Yes
Used interface : Installed external ASPI interface
Gap handling : Appended to previous track
Used output format : User Defined Encoder
Selected bitrate : 768 kBit/s
Quality : High
Add ID3 tag : No
Command line compressor : C:\Tool\Compress\FLAC\flac.exe
Additional command line options : -V -8 -T "ARTIST=%a" -T "TITLE=%t" -T "ALBUM=%g" -T "TRACKNUMBER=%n" -T "GENRE=%m" %s
TOC of the extracted CD
Track | Start | Length | Start sector | End sector
---------------------------------------------------------
1 | 0:00.00 | 6:35.25 | 0 | 29649
2 | 6:35.25 | 9:33.12 | 29650 | 72636
3 | 16:08.37 | 5:19.24 | 72637 | 96585
4 | 21:27.61 | 3:57.01 | 96586 | 114361
5 | 25:24.62 | 5:52.55 | 114362 | 140816
6 | 31:17.42 | 4:23.45 | 140817 | 160586
7 | 35:41.12 | 4:50.58 | 160587 | 182394
8 | 40:31.70 | 4:18.05 | 182395 | 201749
9 | 44:50.00 | 6:02.70 | 201750 | 228969
Track 1
Filename C:\! RUTRACKER\ru up\Open Loose - Strange Unison\01 - Graveling.wav
Pre-gap length 0:00:02.00
Peak level 95.3 %
Track quality 100.0 %
Test CRC 427F68EB
Copy CRC 427F68EB
Track not present in AccurateRip database
Copy OK
Track 2
Filename C:\! RUTRACKER\ru up\Open Loose - Strange Unison\02 - Blue Light Down The Line.wav
Pre-gap length 0:00:03.11
Peak level 98.2 %
Track quality 100.0 %
Test CRC DA04CECF
Copy CRC DA04CECF
Track not present in AccurateRip database
Copy OK
Track 3
Filename C:\! RUTRACKER\ru up\Open Loose - Strange Unison\03 - Sonic Rights.wav
Pre-gap length 0:00:04.11
Peak level 98.1 %
Track quality 100.0 %
Test CRC C758EF61
Copy CRC C758EF61
Track not present in AccurateRip database
Copy OK
Track 4
Filename C:\! RUTRACKER\ru up\Open Loose - Strange Unison\04 - CBJ.wav
Pre-gap length 0:00:02.55
Peak level 95.4 %
Track quality 100.0 %
Test CRC 53125514
Copy CRC 53125514
Track not present in AccurateRip database
Copy OK
Track 5
Filename C:\! RUTRACKER\ru up\Open Loose - Strange Unison\05 - Illustrate.wav
Pre-gap length 0:00:04.05
Peak level 99.2 %
Track quality 100.0 %
Test CRC FF2BEE6B
Copy CRC FF2BEE6B
Track not present in AccurateRip database
Copy OK
Track 6
Filename C:\! RUTRACKER\ru up\Open Loose - Strange Unison\06 - Circling.wav
Pre-gap length 0:00:02.55
Peak level 98.4 %
Track quality 100.0 %
Test CRC D6ABB0B3
Copy CRC D6ABB0B3
Track not present in AccurateRip database
Copy OK
Track 7
Filename C:\! RUTRACKER\ru up\Open Loose - Strange Unison\07 - Johns and Marks.wav
Pre-gap length 0:00:02.55
Peak level 99.4 %
Track quality 100.0 %
Test CRC 39BBD8FB
Copy CRC 39BBD8FB
Track not present in AccurateRip database
Copy OK
Track 8
Filename C:\! RUTRACKER\ru up\Open Loose - Strange Unison\08 - Irrational.wav
Pre-gap length 0:00:03.53
Peak level 99.0 %
Track quality 100.0 %
Test CRC 32C2CA3E
Copy CRC 32C2CA3E
Track not present in AccurateRip database
Copy OK
Track 9
Filename C:\! RUTRACKER\ru up\Open Loose - Strange Unison\09 - Silent Stutter.wav
Pre-gap length 0:00:03.12
Peak level 99.4 %
Track quality 100.0 %
Test CRC 4C2D4766
Copy CRC 4C2D4766
Track not present in AccurateRip database
Copy OK
None of the tracks are present in the AccurateRip database
No errors occurred
End of status report
 
Содержание индексной карты (.CUE)
REM GENRE Jazz
REM DATE 2007
REM DISCID 890BEC09
REM COMMENT "ExactAudioCopy v0.99pb5"
PERFORMER "Open Loose"
TITLE "Strange Unison"
FILE "01 - Graveling.wav" WAVE
TRACK 01 AUDIO
TITLE "Graveling"
PERFORMER "Open Loose"
ISRC USMAH0712901
FLAGS DCP
INDEX 01 00:00:00
TRACK 02 AUDIO
TITLE "Blue Light Down The Line"
PERFORMER "Open Loose"
ISRC USMAH0712902
FLAGS DCP
INDEX 00 06:32:14
FILE "02 - Blue Light Down The Line.wav" WAVE
INDEX 01 00:00:00
TRACK 03 AUDIO
TITLE "Sonic Rights"
PERFORMER "Open Loose"
ISRC USMAH0712903
FLAGS DCP
INDEX 00 09:29:01
FILE "03 - Sonic Rights.wav" WAVE
INDEX 01 00:00:00
TRACK 04 AUDIO
TITLE "CBJ"
PERFORMER "Open Loose"
ISRC USMAH0712904
FLAGS DCP
INDEX 00 05:16:44
FILE "04 - CBJ.wav" WAVE
INDEX 01 00:00:00
TRACK 05 AUDIO
TITLE "Illustrate"
PERFORMER "Open Loose"
ISRC USMAH0712905
FLAGS DCP
INDEX 00 03:52:71
FILE "05 - Illustrate.wav" WAVE
INDEX 01 00:00:00
TRACK 06 AUDIO
TITLE "Circling"
PERFORMER "Open Loose"
ISRC USMAH0712906
FLAGS DCP
INDEX 00 05:50:00
FILE "06 - Circling.wav" WAVE
INDEX 01 00:00:00
TRACK 07 AUDIO
TITLE "Johns and Marks"
PERFORMER "Open Loose"
ISRC USMAH0712907
FLAGS DCP
INDEX 00 04:20:65
FILE "07 - Johns and Marks.wav" WAVE
INDEX 01 00:00:00
TRACK 08 AUDIO
TITLE "Irrational"
PERFORMER "Open Loose"
ISRC USMAH0712908
FLAGS DCP
INDEX 00 04:47:05
FILE "08 - Irrational.wav" WAVE
INDEX 01 00:00:00
TRACK 09 AUDIO
TITLE "Silent Stutter"
PERFORMER "Open Loose"
ISRC USMAH0712909
FLAGS DCP
INDEX 00 04:14:68
FILE "09 - Silent Stutter.wav" WAVE
INDEX 01 00:00:00
Доп. информация:
Recorded May 11-12 2007 by Andrew Felluss at 58 North Sixth Media Labs, Brooklyn, NY.
 
Об альбоме (сборнике)
One thing that never gets mentioned in relation to jazz trios is the sheer NERVE involved. Piano trios are textually easier to embrace, with all that chordal warmth fleshing out the bare bones. But with a sax, bass and drums you better be sure you know what you're doing. Bassist Helias, whose track record includes sessions with Anthony Braxton, Dewey Redman, Mose Allison and Don Cherry (amongst hundreds of others) is, of course, well up to the job, as are the other two members of Open Loose: Tony Malaby (sax) and Tom Rainey (Drums). Strange Unison, their fifth album - is a fine demonstration of how to make such tricky music sound remarkably relaxed and easy.
At times the free form nature of the band's blowing allows Helias to fully explore every inch of his instrument, from the bridge to the shell and all points in between, very much as another recent pioneer of the low end, Dan Berglund of E.S.T, does. On Irrational the entire ensemble really get to grips with their kit. But at other times this is a tighter-than-you-think proposition. What may start as something seemingly extemporised will morph into an amazingly tight exploration, such as the Mingus-like passages at the end of Sonic Rights. But the trio's real favoured method of expression is their beloved NY hipster swing. Time and time again they retyurn to a high hat-driven bop template that oozes slinky street style as on John And Marks, Silent Stutter or CBJ. It's a warm, emotive sound that allows Malaby to have oodles of fun while sometimes seeming a little too cosy. But this is American jazz, not European, and Wibutee this is not. It still bursts with fearsome technique.
Strange Unison is, then, an accessible and finely executed piece of trio work. Not overly challenging, but still brave...
 
Состав
Mark Helias - double bass
Tom Rainey - drums
Tony Malaby - tenor saxophone
Any questions -> support@pro-jazz.com. По всем вопросам пишите -> support@pro-jazz.com
07:08
135
Нет комментариев. Ваш будет первым!