Вы используете незарегистрированную версию компонента "Вкладки"!

Поиск

(Free Improvisation, Noise, Курёхинг) Kenny Millions (Keshavan Maslak) & Otomo Yoshihide (大友良英) - Without Kuryokhin - 1999, FLAC (tracks+.cue), lossless

(Free Improvisation, Noise, Курёхинг) Kenny Millions (Keshavan Maslak) & Otomo Yoshihide (大友良英) - Without Kuryokhin - 1999, FLAC (tracks+.cue), lossless
Треклист:
Kenny Millions & Otomo Yoshihide / Without Kuryokhin
Жанр: Free Improvisation, Noise, Курёхинг
Страна-производитель диска: Россия
Год издания диска: 1999
Издатель (лейбл): Длинные Руки Рекордс
Номер по каталогу: CDLA 99021
Страна: США, Япония, Россия
Аудиокодек: FLAC (*.flac)
Тип рипа: tracks+.cue
Битрейт аудио: lossless
Продолжительность: 49:55
Источник (релизер): вот.сиди (memorycutups он же Torturegarden)
Наличие сканов в содержимом раздачи: нет
Треклист:
1. Live & Remix 1 9.04
2. Live 1 3.31
3. Live & Remix 2 0.53
4. Live & Remix 3 6.03
5. Live & Remix 4 3.57
6. Live 2 21.59
7. Live & Remix 5 3.59
Записано на концерте в Москве в октябре 1996 года
 
Лог создания рипа
Exact Audio Copy V1.0 beta 1 from 15. November 2010
EAC extraction logfile from 26. June 2011, 19:27
Kenny Millions & Otomo Yoshihide / Without Kuryokhin
Used drive : HP DVD Writer 1170d Adapter: 6 ID: 2
Read mode : Secure
Utilize accurate stream : Yes
Defeat audio cache : Yes
Make use of C2 pointers : No
Read offset correction : 6
Overread into Lead-In and Lead-Out : No
Fill up missing offset samples with silence : Yes
Delete leading and trailing silent blocks : No
Null samples used in CRC calculations : Yes
Used interface : Installed external ASPI interface
Gap handling : Appended to previous track
Used output format : User Defined Encoder
Selected bitrate : 768 kBit/s
Quality : High
Add ID3 tag : No
Command line compressor : C:\Program Files\Exact Audio Copy\FLAC\FLAC.EXE
Additional command line options : -8 -V -T "ARTIST=%a" -T "TITLE=%t" -T "ALBUM=%g" -T "DATE=%y" -T "TRACKNUMBER=%n" -T "GENRE=%m" -T "COMMENT=EAC FLAC -8" %s
TOC of the extracted CD
Track | Start | Length | Start sector | End sector
---------------------------------------------------------
1 | 0:00.00 | 9:11.16 | 0 | 41340
2 | 9:11.16 | 3:36.62 | 41341 | 57602
3 | 12:48.03 | 0:54.45 | 57603 | 61697
4 | 13:42.48 | 6:08.72 | 61698 | 89369
5 | 19:51.45 | 3:57.17 | 89370 | 107161
6 | 23:48.62 | 22:02.45 | 107162 | 206356
7 | 45:51.32 | 4:03.43 | 206357 | 224624
Track 1
Filename E:\Roman\!\Kenny Millions & Otomo Yoshihide - Without Kuryokhin\01. Kenny Millions & Otomo Yoshihide – Live & Remix 1.wav
Pre-gap length 0:00:02.00
Peak level 100.0 %
Extraction speed 4.5 X
Track quality 99.9 %
Test CRC E6412688
Copy CRC E6412688
Accurately ripped (confidence 1) [D9C0FA12]
Copy OK
Track 2
Filename E:\Roman\!\Kenny Millions & Otomo Yoshihide - Without Kuryokhin\02. Kenny Millions & Otomo Yoshihide – Live 1.wav
Pre-gap length 0:00:06.09
Peak level 100.0 %
Extraction speed 4.1 X
Track quality 99.9 %
Test CRC 87F8A5A1
Copy CRC 87F8A5A1
Accurately ripped (confidence 1) [4E028D3B]
Copy OK
Track 3
Filename E:\Roman\!\Kenny Millions & Otomo Yoshihide - Without Kuryokhin\03. Kenny Millions & Otomo Yoshihide – Live & Remix 2.wav
Pre-gap length 0:00:04.20
Peak level 76.8 %
Extraction speed 3.6 X
Track quality 100.0 %
Test CRC AEB71174
Copy CRC AEB71174
Accurately ripped (confidence 1) [40333A4D]
Copy OK
Track 4
Filename E:\Roman\!\Kenny Millions & Otomo Yoshihide - Without Kuryokhin\04. Kenny Millions & Otomo Yoshihide – Live & Remix 3.wav
Pre-gap length 0:00:01.12
Peak level 91.9 %
Extraction speed 6.0 X
Track quality 100.0 %
Test CRC 4D05A3C1
Copy CRC 4D05A3C1
Accurately ripped (confidence 1) [1E5AB262]
Copy OK
Track 5
Filename E:\Roman\!\Kenny Millions & Otomo Yoshihide - Without Kuryokhin\05. Kenny Millions & Otomo Yoshihide – Live & Remix 4.wav
Pre-gap length 0:00:05.10
Peak level 100.0 %
Extraction speed 6.1 X
Track quality 100.0 %
Test CRC CE8E553D
Copy CRC CE8E553D
Accurately ripped (confidence 1) [24E25C31]
Copy OK
Track 6
Filename E:\Roman\!\Kenny Millions & Otomo Yoshihide - Without Kuryokhin\06. Kenny Millions & Otomo Yoshihide – Live 2.wav
Pre-gap length 0:00:00.16
Peak level 100.0 %
Extraction speed 6.4 X
Track quality 99.9 %
Test CRC B454E9B1
Copy CRC B454E9B1
Accurately ripped (confidence 1) [EF7171F6]
Copy OK
Track 7
Filename E:\Roman\!\Kenny Millions & Otomo Yoshihide - Without Kuryokhin\07. Kenny Millions & Otomo Yoshihide – Live & Remix 5.wav
Pre-gap length 0:00:04.49
Peak level 100.0 %
Extraction speed 6.5 X
Track quality 100.0 %
Test CRC 73D07837
Copy CRC 73D07837
Accurately ripped (confidence 1) [B3BD313A]
Copy OK
All tracks accurately ripped
No errors occurred
End of status report
==== Log checksum E9FF628D8E90C28CD19727B48BDD605375AAF9627734D429208C62340715461B ====
 
Содержание индексной карты (.CUE)
REM GENRE Experimental
REM DATE 1999
REM DISCID 520BB307
REM COMMENT "ExactAudioCopy v1.0b1"
PERFORMER "Kenny Millions & Otomo Yoshihide"
TITLE "Without Kuryokhin"
FILE "01. Kenny Millions & Otomo Yoshihide – Live & Remix 1.wav" WAVE
TRACK 01 AUDIO
TITLE "Live & Remix 1"
PERFORMER "Kenny Millions & Otomo Yoshihide"
INDEX 01 00:00:00
TRACK 02 AUDIO
TITLE "Live 1"
PERFORMER "Kenny Millions & Otomo Yoshihide"
INDEX 00 09:05:07
FILE "02. Kenny Millions & Otomo Yoshihide – Live 1.wav" WAVE
INDEX 01 00:00:00
TRACK 03 AUDIO
TITLE "Live & Remix 2"
PERFORMER "Kenny Millions & Otomo Yoshihide"
INDEX 00 03:32:42
FILE "03. Kenny Millions & Otomo Yoshihide – Live & Remix 2.wav" WAVE
INDEX 01 00:00:00
TRACK 04 AUDIO
TITLE "Live & Remix 3"
PERFORMER "Kenny Millions & Otomo Yoshihide"
INDEX 00 00:53:33
FILE "04. Kenny Millions & Otomo Yoshihide – Live & Remix 3.wav" WAVE
INDEX 01 00:00:00
TRACK 05 AUDIO
TITLE "Live & Remix 4"
PERFORMER "Kenny Millions & Otomo Yoshihide"
INDEX 00 06:03:62
FILE "05. Kenny Millions & Otomo Yoshihide – Live & Remix 4.wav" WAVE
INDEX 01 00:00:00
TRACK 06 AUDIO
TITLE "Live 2"
PERFORMER "Kenny Millions & Otomo Yoshihide"
INDEX 00 03:57:01
FILE "06. Kenny Millions & Otomo Yoshihide – Live 2.wav" WAVE
INDEX 01 00:00:00
TRACK 07 AUDIO
TITLE "Live & Remix 5"
PERFORMER "Kenny Millions & Otomo Yoshihide"
INDEX 00 21:57:71
FILE "07. Kenny Millions & Otomo Yoshihide – Live & Remix 5.wav" WAVE
INDEX 01 00:00:00
 
Лог проверки качества
AUDIOCHECKER v2.0 beta (build 457) - by Dester - opdester@freemail.hu
~~~~~~~~~~~~~~~~~~~~~~~~~~~~~~~~~~
-=== DO NOT EDIT THIS FILE! ===-
Path: ...\Kenny Millions & Otomo Yoshihide - Without Kuryokhin
1 -=- 01. Kenny Millions & Otomo Yoshihide – Live & Remix 1.flac -=- CDDA (100%)
2 -=- 02. Kenny Millions & Otomo Yoshihide – Live 1.flac -=- CDDA (100%)
3 -=- 03. Kenny Millions & Otomo Yoshihide – Live & Remix 2.flac -=- CDDA (100%)
4 -=- 04. Kenny Millions & Otomo Yoshihide – Live & Remix 3.flac -=- CDDA (100%)
5 -=- 05. Kenny Millions & Otomo Yoshihide – Live & Remix 4.flac -=- CDDA (99%)
6 -=- 06. Kenny Millions & Otomo Yoshihide – Live 2.flac -=- CDDA (100%)
7 -=- 07. Kenny Millions & Otomo Yoshihide – Live & Remix 5.flac -=- CDDA (99%)
Summary 99,71% CDDA
261953396
 
Об альбоме (сборнике)
Живые и ре-микшированные звуки с концерта памяти С. Курехина
 
Состав
Кешаван Маслак - саксофон, гитара, голос
Отомо Йошихиде - вертушки, электроника
Any questions -> support@pro-jazz.com. По всем вопросам пишите -> support@pro-jazz.com
21:06
238
Нет комментариев. Ваш будет первым!