Вы используете незарегистрированную версию компонента "Вкладки"!

Поиск

(Free Improvisation, Noise) Jim Sauter‎, Don Dietrich‎, Thurston Moore‎ - Barefoot In The Head - 1996 (1988), FLAC (tracks+.cue), lossless

(Free Improvisation, Noise) Jim Sauter‎, Don Dietrich‎, Thurston Moore‎ - Barefoot In The Head - 1996 (1988), FLAC (tracks+.cue), lossless
Треклист:
Jim Sauter‎, Don Dietrich‎, Thurston Moore‎ / Barefoot In The Head
Жанр: Free Improvisation, Noise
Страна-производитель диска: США
Год издания диска: 1996 (1988)
Издатель (лейбл): Forced Exposure
Номер по каталогу: FE-015
Страна: США
Аудиокодек: FLAC (*.flac)
Тип рипа: tracks+.cue
Битрейт аудио: lossless
Продолжительность: 38:46
Источник (релизер): вот.сиди (infinityturtles)
Наличие сканов в содержимом раздачи: нет
Треклист:
1 All Doors Look Alike (5:49)
2 Tanned Moon (8:26)
3 On The Phrase "Ass Backwards" (4:27)
4 The Date-Reduced Loaf (0:55)
5 Concerning The Sun As A Cool Solid (18:49)
Recorded on June 16, 1988 at Fun City Studios, NYC.
 
Лог создания рипа
Exact Audio Copy V1.0 beta 1 from 15. November 2010
EAC extraction logfile from 7. December 2011, 13:10
Jim Sauter, Don Dietrich & Thurston Moore / Barefoot In The Head
Used drive : LITE-ON DVDRW SHW-1635S Adapter: 0 ID: 0
Read mode : Secure
Utilize accurate stream : Yes
Defeat audio cache : Yes
Make use of C2 pointers : No
Read offset correction : 6
Overread into Lead-In and Lead-Out : No
Fill up missing offset samples with silence : Yes
Delete leading and trailing silent blocks : No
Null samples used in CRC calculations : Yes
Used interface : Native Win32 interface for Win NT & 2000
Gap handling : Appended to previous track
Used output format : User Defined Encoder
Selected bitrate : 32 kBit/s
Quality : High
Add ID3 tag : No
Command line compressor : C:\Downloads\Audio\Exact Audio Copy\Flac\flac.exe
Additional command line options : -V -8 -T "artist=%a" -T "title=%t" -T "album=%g" -T "date=%y" -T "tracknumber=%n" -T "genre=%m" %s
TOC of the extracted CD
Track | Start | Length | Start sector | End sector
---------------------------------------------------------
1 | 0:00.00 | 5:50.47 | 0 | 26296
2 | 5:50.47 | 8:31.53 | 26297 | 64674
3 | 14:22.25 | 4:33.52 | 64675 | 85201
4 | 18:56.02 | 1:00.33 | 85202 | 89734
5 | 19:56.35 | 18:49.20 | 89735 | 174429
Track 1
Filename M:\EAC rips\Jim Sauter, Don Dietrich & Thurston Moore - 1990 - Barefoot In The Head\01 - All Doots Look Alike.wav
Pre-gap length 0:00:02.00
Peak level 72.3 %
Extraction speed 1.7 X
Track quality 99.9 %
Test CRC EE809CD3
Copy CRC EE809CD3
Accurately ripped (confidence 1) [CD998098]
Copy OK
Track 2
Filename M:\EAC rips\Jim Sauter, Don Dietrich & Thurston Moore - 1990 - Barefoot In The Head\02 - Tanned Moon.wav
Pre-gap length 0:00:03.67
Peak level 41.8 %
Extraction speed 1.9 X
Track quality 99.9 %
Test CRC 9A888B97
Copy CRC 9A888B97
Accurately ripped (confidence 1) [5F75EB58]
Copy OK
Track 3
Filename M:\EAC rips\Jim Sauter, Don Dietrich & Thurston Moore - 1990 - Barefoot In The Head\03 - On the Phrase 'Ass Backwards'.wav
Pre-gap length 0:00:04.68
Peak level 26.3 %
Extraction speed 2.2 X
Track quality 100.0 %
Test CRC C629A73F
Copy CRC C629A73F
Accurately ripped (confidence 1) [A732EBEF]
Copy OK
Track 4
Filename M:\EAC rips\Jim Sauter, Don Dietrich & Thurston Moore - 1990 - Barefoot In The Head\04 - The Date-Reduced Loaf.wav
Pre-gap length 0:00:06.22
Peak level 67.0 %
Extraction speed 0.7 X
Track quality 99.8 %
Test CRC F7224B28
Copy CRC F7224B28
Accurately ripped (confidence 1) [04746415]
Copy OK
Track 5
Filename M:\EAC rips\Jim Sauter, Don Dietrich & Thurston Moore - 1990 - Barefoot In The Head\05 - Concerning the Sun as a Cool Solid.wav
Pre-gap length 0:00:05.08
Peak level 88.3 %
Extraction speed 2.4 X
Track quality 100.0 %
Test CRC B182E3CF
Copy CRC B182E3CF
Accurately ripped (confidence 1) [2887A705]
Copy OK
All tracks accurately ripped
No errors occurred
End of status report
==== Log checksum A39EA687A462599DB69EDCD6E7B67880C8EDD80789309CA1BE784C067BE2C6AB ====
 
Содержание индексной карты (.CUE)
REM GENRE Other
REM DATE 1990
REM DISCID 3E091505
REM COMMENT "ExactAudioCopy v1.0b1"
FILE "01 - All Doots Look Alike.wav" WAVE
TRACK 01 AUDIO
INDEX 01 00:00:00
TRACK 02 AUDIO
INDEX 00 05:46:55
FILE "02 - Tanned Moon.wav" WAVE
INDEX 01 00:00:00
TRACK 03 AUDIO
INDEX 00 08:26:60
FILE "03 - On the Phrase 'Ass Backwards'.wav" WAVE
INDEX 01 00:00:00
TRACK 04 AUDIO
INDEX 00 04:27:30
FILE "04 - The Date-Reduced Loaf.wav" WAVE
INDEX 01 00:00:00
TRACK 05 AUDIO
INDEX 00 00:55:25
FILE "05 - Concerning the Sun as a Cool Solid.wav" WAVE
INDEX 01 00:00:00
 
Лог проверки качества
AUDIOCHECKER v2.0 beta (build 457) - by Dester - opdester@freemail.hu
~~~~~~~~~~~~~~~~~~~~~~~~~~~~~~~~~~
-=== DO NOT EDIT THIS FILE! ===-
Path: ...\Jim Sauter, Don Dietrich & Thurston Moore - 1990 - Barefoot In The Head
1 -=- 01 - All Doots Look Alike.flac -=- CDDA (100%)
2 -=- 02 - Tanned Moon.flac -=- CDDA (100%)
3 -=- 03 - On the Phrase 'Ass Backwards'.flac -=- CDDA (99%)
4 -=- 04 - The Date-Reduced Loaf.flac -=- CDDA (100%)
5 -=- 05 - Concerning the Sun as a Cool Solid.flac -=- CDDA (100%)
Summary 99,80% CDDA
187741988
 
Состав
Thurston Moore guitar
Don Dietrich, Jim Sauter saxophones
Any questions -> support@pro-jazz.com. По всем вопросам пишите -> support@pro-jazz.com
19:23
162
Нет комментариев. Ваш будет первым!