Вы используете незарегистрированную версию компонента "Вкладки"!

Поиск

(Free Improvisation, Noise) Gunter Muller / Le Quan Ninh - La Voyelle Liquide - 2000, FLAC (tracks+.cue), lossless

(Free Improvisation, Noise) Gunter Muller / Le Quan Ninh - La Voyelle Liquide - 2000, FLAC (tracks+.cue), lossless
Треклист:
Günter Müller / Lê Quan Ninh - La Voyelle Liquide
Жанр: Free Improvisation, Noise
Год выпуска диска: 2000
Производитель диска: Erstwhile Records (Erstwhile 010)
Источник: soulseek
Аудио кодек: FLAC
Тип рипа: tracks+.cue
Битрейт аудио: lossless
Продолжительность: 1:15:02
Трэклист:
1. la voyelle a (4:28)
2. la voyelle e (21:27)
3. la voyelle i (13:00)
4. la voyelle o (8:04)
5. la voyelle u (8:10)
6. la voyelle y (8:36)
7. la voyelle liquide (11:16)
Günter Müller selected drums, minidiscs & electronics
Lê Quan Ninh surrounded bass drum & electronics
 
Отчёт EAC
+ act Audio Copy V0.99 prebeta 5 from 4. May 2009
EAC extraction logfile from 16. January 2010, 10:05
Gьnter Mьller & Lк Quan Ninh / La Voyelle Liquide
Used drive : TSSTcorpDVD+-RW TS-T633A Adapter: 1 ID: 0
Read mode : Secure
Utilize accurate stream : Yes
Defeat audio cache : Yes
Make use of C2 pointers : No
Read offset correction : 6
Overread into Lead-In and Lead-Out : No
Fill up missing offset samples with silence : Yes
Delete leading and trailing silent blocks : No
Null samples used in CRC calculations : Yes
Used interface : Installed external ASPI interface
Gap handling : Appended to previous track
Used output format : User Defined Encoder
Selected bitrate : 768 kBit/s
Quality : High
Add ID3 tag : Yes
Command line compressor : C:\Program Files (x86)\Exact Audio Copy\FLAC\FLAC.EXE
Additional command line options : -6 -V -T "ARTIST=%a" -T "TITLE=%t" -T "ALBUM=%g" -T "DATE=%y" -T "TRACKNUMBER=%n" -T "GENRE=%m" -T "COMMENT=%e" %s -o %d
TOC of the extracted CD
Track | Start | Length | Start sector | End sector
---------------------------------------------------------
1 | 0:00.00 | 4:28.23 | 0 | 20122
2 | 4:28.23 | 21:26.55 | 20123 | 116627
3 | 25:55.03 | 13:00.13 | 116628 | 175140
4 | 38:55.16 | 8:03.67 | 175141 | 211432
5 | 46:59.08 | 8:09.68 | 211433 | 248175
6 | 55:09.01 | 8:36.54 | 248176 | 286929
7 | 63:45.55 | 11:16.14 | 286930 | 337643
Track 1
Filename C:\Users\Public\Slsk\+++ SLSK ARCHIVE\+ new adds - to be shunted to arbitrary genre assignments sooner or later\+++ NEW RIPS (eac + flac, usually)\Gьnter Mьller & Lк Quan Ninh - 2000 - La Voyelle Liquide\01 - La Voyelle A.wav
Pre-gap length 0:00:02.00
Peak level 96.8 %
Track quality 99.9 %
Copy CRC D9B41553
Accurately ripped (confidence 1) [90FC3893]
Copy OK
Track 2
Filename C:\Users\Public\Slsk\+++ SLSK ARCHIVE\+ new adds - to be shunted to arbitrary genre assignments sooner or later\+++ NEW RIPS (eac + flac, usually)\Gьnter Mьller & Lк Quan Ninh - 2000 - La Voyelle Liquide\02 - La Voyelle E.wav
Pre-gap length 0:00:02.60
Peak level 92.8 %
Track quality 99.9 %
Copy CRC 5F06811C
Accurately ripped (confidence 1) [A4F91EB4]
Copy OK
Track 3
Filename C:\Users\Public\Slsk\+++ SLSK ARCHIVE\+ new adds - to be shunted to arbitrary genre assignments sooner or later\+++ NEW RIPS (eac + flac, usually)\Gьnter Mьller & Lк Quan Ninh - 2000 - La Voyelle Liquide\03 - La Voyelle I.wav
Pre-gap length 0:00:05.33
Peak level 40.7 %
Track quality 100.0 %
Copy CRC D6FC5168
Accurately ripped (confidence 1) [89148077]
Copy OK
Track 4
Filename C:\Users\Public\Slsk\+++ SLSK ARCHIVE\+ new adds - to be shunted to arbitrary genre assignments sooner or later\+++ NEW RIPS (eac + flac, usually)\Gьnter Mьller & Lк Quan Ninh - 2000 - La Voyelle Liquide\04 - La Voyelle O.wav
Pre-gap length 0:00:01.60
Peak level 88.8 %
Track quality 100.0 %
Copy CRC 579EC257
Accurately ripped (confidence 1) [2B0D87CA]
Copy OK
Track 5
Filename C:\Users\Public\Slsk\+++ SLSK ARCHIVE\+ new adds - to be shunted to arbitrary genre assignments sooner or later\+++ NEW RIPS (eac + flac, usually)\Gьnter Mьller & Lк Quan Ninh - 2000 - La Voyelle Liquide\05 - La Voyelle U.wav
Pre-gap length 0:00:05.60
Peak level 86.0 %
Track quality 100.0 %
Copy CRC ACFE1A7E
Accurately ripped (confidence 1) [2EA527DE]
Copy OK
Track 6
Filename C:\Users\Public\Slsk\+++ SLSK ARCHIVE\+ new adds - to be shunted to arbitrary genre assignments sooner or later\+++ NEW RIPS (eac + flac, usually)\Gьnter Mьller & Lк Quan Ninh - 2000 - La Voyelle Liquide\06 - La Voyelle Y.wav
Pre-gap length 0:00:04.86
Peak level 93.9 %
Track quality 100.0 %
Copy CRC 4E6DB60D
Accurately ripped (confidence 1) [9C195F5D]
Copy OK
Track 7
Filename C:\Users\Public\Slsk\+++ SLSK ARCHIVE\+ new adds - to be shunted to arbitrary genre assignments sooner or later\+++ NEW RIPS (eac + flac, usually)\Gьnter Mьller & Lк Quan Ninh - 2000 - La Voyelle Liquide\07 - La Voyelle Liquide.wav
Pre-gap length 0:00:03.00
Peak level 99.0 %
Track quality 100.0 %
Copy CRC 937849C4
Accurately ripped (confidence 1) [43CFACD8]
Copy OK
All tracks accurately ripped
No errors occurred
End of status report
 
Отчёт Audiocheckera
AUDIOCHECKER v2.0 beta (build 457) - by Dester - opdester@freemail.hu
~~~~~~~~~~~~~~~~~~~~~~~~~~~~~~~~~~
-=== DO NOT EDIT THIS FILE! ===-
Path: ...\gьnter mьller & lк quan ninh - 2000 - la voyelle liquide
1 -=- 01 - La Voyelle A.flac -=- CDDA (43%)
2 -=- 02 - La Voyelle E.flac -=- CDDA (100%)
3 -=- 03 - La Voyelle I.flac -=- CDDA (100%)
4 -=- 04 - La Voyelle O.flac -=- CDDA (100%)
5 -=- 05 - La Voyelle U.flac -=- CDDA (100%)
6 -=- 06 - La Voyelle Y.flac -=- CDDA (99%)
7 -=- 07 - La Voyelle Liquide.flac -=- CDDA (100%)
Summary 91.71% CDDA
84664020
 
cue
REM GENRE Electronic
REM DATE 2000
REM DISCID 55119507
REM COMMENT "ExactAudioCopy v0.99pb5"
PERFORMER "Gьnter Mьller & Lк Quan Ninh"
TITLE "La Voyelle Liquide"
FILE "Gьnter Mьller & Lк Quan Ninh - 2000 - La Voyelle Liquide\01 - La Voyelle A.wav" WAVE
TRACK 01 AUDIO
TITLE "La Voyelle A"
PERFORMER "Gьnter Mьller & Lк Quan Ninh"
FLAGS DCP
INDEX 01 00:00:00
TRACK 02 AUDIO
TITLE "La Voyelle E"
PERFORMER "Gьnter Mьller & Lк Quan Ninh"
FLAGS DCP
INDEX 00 04:25:53
FILE "Gьnter Mьller & Lк Quan Ninh - 2000 - La Voyelle Liquide\02 - La Voyelle E.wav" WAVE
INDEX 01 00:00:00
TRACK 03 AUDIO
TITLE "La Voyelle I"
PERFORMER "Gьnter Mьller & Lк Quan Ninh"
FLAGS DCP
INDEX 00 21:21:30
FILE "Gьnter Mьller & Lк Quan Ninh - 2000 - La Voyelle Liquide\03 - La Voyelle I.wav" WAVE
INDEX 01 00:00:00
TRACK 04 AUDIO
TITLE "La Voyelle O"
PERFORMER "Gьnter Mьller & Lк Quan Ninh"
FLAGS DCP
INDEX 00 12:58:43
FILE "Gьnter Mьller & Lк Quan Ninh - 2000 - La Voyelle Liquide\04 - La Voyelle O.wav" WAVE
INDEX 01 00:00:00
TRACK 05 AUDIO
TITLE "La Voyelle U"
PERFORMER "Gьnter Mьller & Lк Quan Ninh"
FLAGS DCP
INDEX 00 07:58:22
FILE "Gьnter Mьller & Lк Quan Ninh - 2000 - La Voyelle Liquide\05 - La Voyelle U.wav" WAVE
INDEX 01 00:00:00
TRACK 06 AUDIO
TITLE "La Voyelle Y"
PERFORMER "Gьnter Mьller & Lк Quan Ninh"
FLAGS DCP
INDEX 00 08:05:03
FILE "Gьnter Mьller & Lк Quan Ninh - 2000 - La Voyelle Liquide\06 - La Voyelle Y.wav" WAVE
INDEX 01 00:00:00
TRACK 07 AUDIO
TITLE "La Voyelle Liquide"
PERFORMER "Gьnter Mьller & Lк Quan Ninh"
FLAGS DCP
INDEX 00 08:33:54
FILE "Gьnter Mьller & Lк Quan Ninh - 2000 - La Voyelle Liquide\07 - La Voyelle Liquide.wav" WAVE
INDEX 01 00:00:00
Any questions -> support@pro-jazz.com. По всем вопросам пишите -> support@pro-jazz.com
22:41
143
Нет комментариев. Ваш будет первым!