Вы используете незарегистрированную версию компонента "Вкладки"!

Поиск

(Free Improvisation, Noise, Experimental, Erstwhile, Sound Art) Kevin Drumm & Martin Tetreault - Particles And Smears - 2000, FLAC (tracks+.cue), lossless

Треклист:
Kevin Drumm & Martin Tetreault / Particles And Smears
Жанр: Free Improvisation, Noise, Experimental
Страна-производитель диска: US
Год издания диска: 2000
Издатель (лейбл): Erstwhile Records
Номер по каталогу: erstwhile 006
Аудиокодек: FLAC (*.flac)
Тип рипа: tracks+.cue
Битрейт аудио: lossless
Продолжительность: 59:02
Источник (релизер): whatcd/craggyisland
Наличие сканов в содержимом раздачи: нет
Треклист:
1 Untitled 4:16
2 Untitled 4:17
3 Untitled 2:19
4 Untitled 7:36
5 Untitled 5:36
6 Untitled 1:42
7 Untitled 4:04
8 Untitled 4:09
9 Untitled 3:11
10 Untitled 4:07
11 Untitled 3:44
12 Untitled 4:30
13 Untitled 4:38
14 Untitled 4:53
Recorded at 60DUM on 8/31/99.
Thanks to Andy Fenchel of Lampo and Ambiances Magnetiques.
 
Лог создания рипа
Exact Audio Copy V0.99 prebeta 5 from 4. May 2009
EAC extraction logfile from 11. September 2010, 19:42
Kevin Drumm & Martin Tйtreault / Particles and Smears
Used drive : HL-DT-STDVD-RAM GSA-H50N Adapter: 0 ID: 0
Read mode : Secure
Utilize accurate stream : Yes
Defeat audio cache : Yes
Make use of C2 pointers : No
Read offset correction : 102
Overread into Lead-In and Lead-Out : Yes
Fill up missing offset samples with silence : Yes
Delete leading and trailing silent blocks : No
Null samples used in CRC calculations : Yes
Used interface : Native Win32 interface for Win NT & 2000
Gap handling : Appended to previous track
Used output format : User Defined Encoder
Selected bitrate : 128 kBit/s
Quality : High
Add ID3 tag : No
Command line compressor : C:\Program Files\Exact Audio Copy\Flac\flac.exe
Additional command line options : -V -8 -T "artist=%a" -T "title=%t" -T "album=%g" -T "date=%y" -T "tracknumber=%n" -T "genre=%m" %s
TOC of the extracted CD
Track | Start | Length | Start sector | End sector
---------------------------------------------------------
1 | 0:00.01 | 4:16.48 | 1 | 19248
2 | 4:16.49 | 4:15.39 | 19249 | 38412
3 | 8:32.13 | 2:18.70 | 38413 | 48832
4 | 10:51.08 | 7:36.05 | 48833 | 83037
5 | 18:27.13 | 5:36.59 | 83038 | 108296
6 | 24:03.72 | 1:41.42 | 108297 | 115913
7 | 25:45.39 | 4:03.74 | 115914 | 134212
8 | 29:49.38 | 4:09.24 | 134213 | 152911
9 | 33:58.62 | 3:10.38 | 152912 | 167199
10 | 37:09.25 | 4:06.68 | 167200 | 185717
11 | 41:16.18 | 3:43.66 | 185718 | 202508
12 | 45:00.09 | 4:29.67 | 202509 | 222750
13 | 49:30.01 | 4:38.07 | 222751 | 243607
14 | 54:08.08 | 4:53.47 | 243608 | 265629
Track 1
Filename C:\EAC Rips\Kevin Drumm & Martin Tйtreault - 2000 - Particles and Smears [FLAC]\01 - 4-16.wav
Pre-gap length 0:00:02.01
Peak level 58.9 %
Track quality 99.9 %
Test CRC 9E0B2744
Copy CRC 9E0B2744
Accurately ripped (confidence 1) [B59308CC]
Copy OK
Track 2
Filename C:\EAC Rips\Kevin Drumm & Martin Tйtreault - 2000 - Particles and Smears [FLAC]\02 - 4-17.wav
Peak level 96.7 %
Track quality 100.0 %
Test CRC B378917E
Copy CRC B378917E
Accurately ripped (confidence 1) [E90A9A39]
Copy OK
Track 3
Filename C:\EAC Rips\Kevin Drumm & Martin Tйtreault - 2000 - Particles and Smears [FLAC]\03 - 2-19.wav
Peak level 81.8 %
Track quality 100.0 %
Test CRC F341B6DA
Copy CRC F341B6DA
Accurately ripped (confidence 1) [50DCB590]
Copy OK
Track 4
Filename C:\EAC Rips\Kevin Drumm & Martin Tйtreault - 2000 - Particles and Smears [FLAC]\04 - 7-36.wav
Peak level 55.6 %
Track quality 100.0 %
Test CRC AB7A1048
Copy CRC AB7A1048
Accurately ripped (confidence 1) [AA3BF26E]
Copy OK
Track 5
Filename C:\EAC Rips\Kevin Drumm & Martin Tйtreault - 2000 - Particles and Smears [FLAC]\05 - 5-36.wav
Peak level 93.4 %
Track quality 100.0 %
Test CRC 81F87B02
Copy CRC 81F87B02
Accurately ripped (confidence 1) [FE052AD3]
Copy OK
Track 6
Filename C:\EAC Rips\Kevin Drumm & Martin Tйtreault - 2000 - Particles and Smears [FLAC]\06 - 1-42.wav
Peak level 100.0 %
Track quality 100.0 %
Test CRC 3476D914
Copy CRC 3476D914
Accurately ripped (confidence 1) [E1A02CD2]
Copy OK
Track 7
Filename C:\EAC Rips\Kevin Drumm & Martin Tйtreault - 2000 - Particles and Smears [FLAC]\07 - 4-04.wav
Peak level 45.5 %
Track quality 100.0 %
Test CRC AE951814
Copy CRC AE951814
Accurately ripped (confidence 1) [41280263]
Copy OK
Track 8
Filename C:\EAC Rips\Kevin Drumm & Martin Tйtreault - 2000 - Particles and Smears [FLAC]\08 - 4-09.wav
Peak level 76.3 %
Track quality 100.0 %
Test CRC 00F7399D
Copy CRC 00F7399D
Accurately ripped (confidence 1) [885FF8B8]
Copy OK
Track 9
Filename C:\EAC Rips\Kevin Drumm & Martin Tйtreault - 2000 - Particles and Smears [FLAC]\09 - 3-11.wav
Peak level 100.0 %
Track quality 100.0 %
Test CRC B08D3892
Copy CRC B08D3892
Accurately ripped (confidence 1) [2E375C2A]
Copy OK
Track 10
Filename C:\EAC Rips\Kevin Drumm & Martin Tйtreault - 2000 - Particles and Smears [FLAC]\10 - 4-07.wav
Peak level 100.0 %
Track quality 100.0 %
Test CRC 8ECCF2FD
Copy CRC 8ECCF2FD
Accurately ripped (confidence 1) [B1769CA7]
Copy OK
Track 11
Filename C:\EAC Rips\Kevin Drumm & Martin Tйtreault - 2000 - Particles and Smears [FLAC]\11 - 3-44.wav
Peak level 97.1 %
Track quality 100.0 %
Test CRC 6C119CA0
Copy CRC 6C119CA0
Accurately ripped (confidence 1) [2F094FFC]
Copy OK
Track 12
Filename C:\EAC Rips\Kevin Drumm & Martin Tйtreault - 2000 - Particles and Smears [FLAC]\12 - 4-30.wav
Peak level 100.0 %
Track quality 100.0 %
Test CRC 138B97EC
Copy CRC 138B97EC
Accurately ripped (confidence 1) [4DEEA704]
Copy OK
Track 13
Filename C:\EAC Rips\Kevin Drumm & Martin Tйtreault - 2000 - Particles and Smears [FLAC]\13 - 4-38.wav
Peak level 91.1 %
Track quality 100.0 %
Test CRC 71FCFEE5
Copy CRC 71FCFEE5
Accurately ripped (confidence 1) [C8963E87]
Copy OK
Track 14
Filename C:\EAC Rips\Kevin Drumm & Martin Tйtreault - 2000 - Particles and Smears [FLAC]\14 - 4-53.wav
Peak level 100.0 %
Track quality 100.0 %
Test CRC 8F2A5CF9
Copy CRC 8F2A5CF9
Accurately ripped (confidence 1) [4BB418A3]
Copy OK
All tracks accurately ripped
No errors occurred
End of status report
 
Содержание индексной карты (.CUE)
REM GENRE Polka
REM DATE 2000
REM DISCID B10DD50E
REM COMMENT "ExactAudioCopy v0.99pb5"
FILE "Kevin Drumm & Martin Tйtreault - 2000 - Particles and Smears [FLAC]\01 - 4-16.wav" WAVE
TRACK 01 AUDIO
PREGAP 00:00:01
INDEX 01 00:00:00
FILE "Kevin Drumm & Martin Tйtreault - 2000 - Particles and Smears [FLAC]\02 - 4-17.wav" WAVE
TRACK 02 AUDIO
INDEX 01 00:00:00
FILE "Kevin Drumm & Martin Tйtreault - 2000 - Particles and Smears [FLAC]\03 - 2-19.wav" WAVE
TRACK 03 AUDIO
INDEX 01 00:00:00
FILE "Kevin Drumm & Martin Tйtreault - 2000 - Particles and Smears [FLAC]\04 - 7-36.wav" WAVE
TRACK 04 AUDIO
INDEX 01 00:00:00
FILE "Kevin Drumm & Martin Tйtreault - 2000 - Particles and Smears [FLAC]\05 - 5-36.wav" WAVE
TRACK 05 AUDIO
INDEX 01 00:00:00
FILE "Kevin Drumm & Martin Tйtreault - 2000 - Particles and Smears [FLAC]\06 - 1-42.wav" WAVE
TRACK 06 AUDIO
INDEX 01 00:00:00
FILE "Kevin Drumm & Martin Tйtreault - 2000 - Particles and Smears [FLAC]\07 - 4-04.wav" WAVE
TRACK 07 AUDIO
INDEX 01 00:00:00
FILE "Kevin Drumm & Martin Tйtreault - 2000 - Particles and Smears [FLAC]\08 - 4-09.wav" WAVE
TRACK 08 AUDIO
INDEX 01 00:00:00
FILE "Kevin Drumm & Martin Tйtreault - 2000 - Particles and Smears [FLAC]\09 - 3-11.wav" WAVE
TRACK 09 AUDIO
INDEX 01 00:00:00
FILE "Kevin Drumm & Martin Tйtreault - 2000 - Particles and Smears [FLAC]\10 - 4-07.wav" WAVE
TRACK 10 AUDIO
INDEX 01 00:00:00
FILE "Kevin Drumm & Martin Tйtreault - 2000 - Particles and Smears [FLAC]\11 - 3-44.wav" WAVE
TRACK 11 AUDIO
INDEX 01 00:00:00
FILE "Kevin Drumm & Martin Tйtreault - 2000 - Particles and Smears [FLAC]\12 - 4-30.wav" WAVE
TRACK 12 AUDIO
INDEX 01 00:00:00
FILE "Kevin Drumm & Martin Tйtreault - 2000 - Particles and Smears [FLAC]\13 - 4-38.wav" WAVE
TRACK 13 AUDIO
INDEX 01 00:00:00
FILE "Kevin Drumm & Martin Tйtreault - 2000 - Particles and Smears [FLAC]\14 - 4-53.wav" WAVE
TRACK 14 AUDIO
INDEX 01 00:00:00
 
Состав
Composed By – Kevin Drumm, Martin Tétreault
Guitar, Electronics – Kevin Drumm
Mastered By – Malachi Ritscher
Photography By, Design – Shanti Marlar
Producer [Additional Post-production] – Tim Barnes
Recorded By – Todd Carter
Turntables – Martin Tétreault
По всем вопросам пишите личное сообщение пользователю M0p94ok.
13:32
153
Нет комментариев. Ваш будет первым!