Вы используете незарегистрированную версию компонента "Вкладки"!

Поиск

(Free Improvisation, NoBusiness Records) Daunik Lazro / Jean-Francois Pauvros / Roger Turner - Curare - 2011, FLAC (tracks+.cue), lossless

(Free Improvisation, NoBusiness Records) Daunik Lazro / Jean-Francois Pauvros / Roger Turner - Curare - 2011, FLAC (tracks+.cue), lossless
Треклист:
Daunik Lazro, Jean-François Pauvros, Roger Turner / Curare
Жанр: Free Improvisation
Страна-производитель диска: Lithuania
Год издания: 2011
Издатель (лейбл): NoBusiness Records
Номер по каталогу: NBCD 38
Аудиокодек: FLAC (*.flac)
Тип рипа: tracks+.cue
Битрейт аудио: lossless
Продолжительность: 47:19
Источник (релизер): whatcd
Наличие сканов в содержимом раздачи: да
Треклист:
1 Morsure 9:05
2 White Dirt 10:21
3 En Nage 18:50
4 The Eye 9:03
 
Лог создания рипа
Exact Audio Copy V1.0 beta 3 from 29. August 2011
EAC extraction logfile from 4. November 2012, 18:10
Daunik Lazro, Jean-Francois Pauvros, Roger Turner / Curare
Used drive : TSSTcorpCDDVDW SE-S084F Adapter: 1 ID: 0
Read mode : Secure
Utilize accurate stream : Yes
Defeat audio cache : Yes
Make use of C2 pointers : No
Read offset correction : 6
Overread into Lead-In and Lead-Out : No
Fill up missing offset samples with silence : Yes
Delete leading and trailing silent blocks : No
Null samples used in CRC calculations : Yes
Used interface : Native Win32 interface for Win NT & 2000
Gap handling : Appended to previous track
Used output format : User Defined Encoder
Selected bitrate : 1024 kBit/s
Quality : High
Add ID3 tag : No
Command line compressor : C:\Program Files (x86)\Exact Audio Copy\FLAC\FLAC.EXE
Additional command line options : -8 -V -T "ARTIST=%artist%" -T "TITLE=%title%" -T "ALBUM=%albumtitle%" -T "DATE=%year%" -T "TRACKNUMBER=%tracknr%" -T "GENRE=%genre%" -T "PERFORMER=%albuminterpret%" -T "COMPOSER=%composer%" %haslyrics%--tag-from-file=LYRICS="%lyricsfile%"%haslyrics% -T "ALBUMARTIST=%albumartist%" -T "DISCNUMBER=%cdnumber%" -T "TOTALDISCS=%totalcds%" -T "TOTALTRACKS=%numtracks%" -T "COMMENT=%comment%" %source% -o %dest%
TOC of the extracted CD
Track | Start | Length | Start sector | End sector
---------------------------------------------------------
1 | 0:00.00 | 9:05.01 | 0 | 40875
2 | 9:05.01 | 10:21.16 | 40876 | 87466
3 | 19:26.17 | 18:50.06 | 87467 | 172222
4 | 38:16.23 | 9:03.51 | 172223 | 212998
Track 1
Filename F:\Musique Flac\[Label] NoBusiness Records\Daunik Lazro, Jean-Francois Pauvros, Roger Turner - Curare (2011) [FLAC]\01 - Morsure.wav
Pre-gap length 0:00:02.00
Peak level 86.0 %
Extraction speed 3.0 X
Track quality 100.0 %
Test CRC 65E06960
Copy CRC 65E06960
Track not present in AccurateRip database
Copy OK
Track 2
Filename F:\Musique Flac\[Label] NoBusiness Records\Daunik Lazro, Jean-Francois Pauvros, Roger Turner - Curare (2011) [FLAC]\02 - White Dirt.wav
Pre-gap length 0:00:03.00
Peak level 85.2 %
Extraction speed 3.6 X
Track quality 100.0 %
Test CRC 2ABFF0F7
Copy CRC 2ABFF0F7
Track not present in AccurateRip database
Copy OK
Track 3
Filename F:\Musique Flac\[Label] NoBusiness Records\Daunik Lazro, Jean-Francois Pauvros, Roger Turner - Curare (2011) [FLAC]\03 - En Nage.wav
Pre-gap length 0:00:03.00
Peak level 96.6 %
Extraction speed 2.9 X
Track quality 99.9 %
Test CRC 2563AF97
Copy CRC 2563AF97
Track not present in AccurateRip database
Copy OK
Track 4
Filename F:\Musique Flac\[Label] NoBusiness Records\Daunik Lazro, Jean-Francois Pauvros, Roger Turner - Curare (2011) [FLAC]\04 - The Eye.wav
Pre-gap length 0:00:03.00
Peak level 98.1 %
Extraction speed 3.8 X
Track quality 100.0 %
Test CRC 8EAF7B13
Copy CRC 8EAF7B13
Track not present in AccurateRip database
Copy OK
None of the tracks are present in the AccurateRip database
No errors occurred
End of status report
---- CUETools DB Plugin V2.1.3
[CTDB TOCID: iGhSEe1kPOBcFj4xTOnWaiuYSGg-] disk not present in database, Submit result: iGhSEe1kPOBcFj4xTOnWaiuYSGg- has been uploaded
==== Log checksum AAF8F0119D07DD966E1D131A9F5F4D07B72B947BE57BF02C4143B50B22C89477 ====
 
Содержание индексной карты (.CUE)
REM GENRE Jazz
REM DATE 2011
REM DISCID 370B1704
REM COMMENT "ExactAudioCopy v1.0b3"
PERFORMER "Daunik Lazro, Jean-Francois Pauvros, Roger Turner"
TITLE "Curare"
FILE "01 - Morsure.wav" WAVE
TRACK 01 AUDIO
TITLE "Morsure"
PERFORMER "Daunik Lazro, Jean-Francois Pauvros, Roger Turner"
INDEX 01 00:00:00
TRACK 02 AUDIO
TITLE "White Dirt"
PERFORMER "Daunik Lazro, Jean-Francois Pauvros, Roger Turner"
INDEX 00 09:02:01
FILE "02 - White Dirt.wav" WAVE
INDEX 01 00:00:00
TRACK 03 AUDIO
TITLE "En Nage"
PERFORMER "Daunik Lazro, Jean-Francois Pauvros, Roger Turner"
INDEX 00 10:18:16
FILE "03 - En Nage.wav" WAVE
INDEX 01 00:00:00
TRACK 04 AUDIO
TITLE "The Eye"
PERFORMER "Daunik Lazro, Jean-Francois Pauvros, Roger Turner"
INDEX 00 18:47:06
FILE "04 - The Eye.wav" WAVE
INDEX 01 00:00:00
Доп. информация: Recorded At – Les Instants Chavirés, Montreuil
 
Состав
Baritone Saxophone, Alto Saxophone – Daunik Lazro
Drums, Percussion – Roger Turner
Electric Guitar – Jean-François Pauvros
Any questions -> support@pro-jazz.com. По всем вопросам пишите -> support@pro-jazz.com
06:53
154
Нет комментариев. Ваш будет первым!