Вы используете незарегистрированную версию компонента "Вкладки"!

Поиск

(Free Improvisation) Mikołaj (Mikolaj) Trzaska Ircha Clarinet Quintet feat. Joe McPhee (Wacław (Waclaw) Zimpel, Paweł (Pawel) Szamburski, Michał Górczyński (Michal Gorczynski)) - Lark Uprising - 2010, FLAC (tracks+.cue),

(Free Improvisation) Mikołaj (Mikolaj) Trzaska Ircha Clarinet Quintet feat. Joe McPhee (Wacław (Waclaw) Zimpel, Paweł (Pawel) Szamburski, Michał Górczyński (Michal Gorczynski)) - Lark Uprising - 2010, FLAC (tracks+.cue),
Треклист:
Mikołaj Trzaska Ircha Clarinet Quintet feat. Joe McPhee / Lark Uprising
Жанр: Free Improvisation
Страна-производитель диска: Польша
Год издания: 2010
Издатель (лейбл): Multikulti Project
Номер по каталогу: MPT001
Страна: Польша, США
Аудиокодек: FLAC (*.flac)
Тип рипа: tracks+.cue
Битрейт аудио: lossless
Продолжительность: 43:11
Источник (релизер): вот.сиди (dondon)
Наличие сканов в содержимом раздачи: нет
Треклист:
1. Ant-hill Builder
2. City Shepherds
3. Sleeping deep in the Moss
4. Swampquake
5. Sparrows In Pentagon
recorded live on Tzadik Poznan Festival 2009
 
Лог создания рипа
Exact Audio Copy V1.0 beta 2 from 29. April 2011
EAC extraction logfile from 25. October 2011, 1:41
Ircha / Lark Uprising
Used drive : PIONEER DVD-RW DVR-112D Adapter: 1 ID: 0
Read mode : Secure
Utilize accurate stream : Yes
Defeat audio cache : Yes
Make use of C2 pointers : No
Read offset correction : 48
Overread into Lead-In and Lead-Out : No
Fill up missing offset samples with silence : Yes
Delete leading and trailing silent blocks : No
Null samples used in CRC calculations : Yes
Used interface : Native Win32 interface for Win NT & 2000
Gap handling : Appended to previous track
Used output format : User Defined Encoder
Selected bitrate : 768 kBit/s
Quality : High
Add ID3 tag : No
Command line compressor : C:\Program Files\Exact Audio Copy\flac.exe
Additional command line options : -8 -V -T "ARTIST=%artist%" -T "TITLE=%title%" -T "ALBUM=%albumtitle%" -T "DATE=%year%" -T "TRACKNUMBER=%tracknr%" -T "TOTALTRACKS=%numtracks%" -T "GENRE=%genre%" -T "ALBUMARTIST=%albumartist%" -T "ALBUM ARTIST=%albumartist%
TOC of the extracted CD
Track | Start | Length | Start sector | End sector
---------------------------------------------------------
1 | 0:00.00 | 13:18.70 | 0 | 59919
2 | 13:18.70 | 5:51.28 | 59920 | 86272
3 | 19:10.23 | 3:46.67 | 86273 | 103289
4 | 22:57.15 | 7:12.50 | 103290 | 135739
5 | 30:09.65 | 13:01.10 | 135740 | 194324
Track 1
Filename C:\Temp\01 - Ant-hill Builder.wav
Pre-gap length 0:00:02.00
Peak level 89.1 %
Extraction speed 5.6 X
Track quality 100.0 %
Test CRC 999585CE
Copy CRC 999585CE
Track not present in AccurateRip database
Copy OK
Track 2
Filename C:\Temp\02 - City Shepherds.wav
Peak level 88.7 %
Extraction speed 6.4 X
Track quality 100.0 %
Test CRC 08D3B436
Copy CRC 08D3B436
Track not present in AccurateRip database
Copy OK
Track 3
Filename C:\Temp\03 - Sleeping deep in the Moss.wav
Peak level 81.3 %
Extraction speed 6.4 X
Track quality 100.0 %
Test CRC ADC4BC25
Copy CRC ADC4BC25
Track not present in AccurateRip database
Copy OK
Track 4
Filename C:\Temp\04 - Swampquake.wav
Peak level 89.1 %
Extraction speed 7.3 X
Track quality 100.0 %
Test CRC DFA9D3EB
Copy CRC DFA9D3EB
Track not present in AccurateRip database
Copy OK
Track 5
Filename C:\Temp\05 - Sparrows In Petagon.wav
Peak level 89.1 %
Extraction speed 8.3 X
Track quality 100.0 %
Test CRC E8E93115
Copy CRC E8E93115
Track not present in AccurateRip database
Copy OK
None of the tracks are present in the AccurateRip database
No errors occurred
End of status report
==== Log checksum FE79F9380ACBC3859B1C17CF398EFBF0EEDAF37D2E24DA1D989CE3D2580F5CA0 ====
 
Содержание индексной карты (.CUE)
REM GENRE Jazz
REM DATE 2010
REM DISCID 320A1F05
REM COMMENT "ExactAudioCopy v1.0b2"
PERFORMER "Ircha"
TITLE "Lark Uprising"
FILE "01 - Ant-hill Builder.wav" WAVE
TRACK 01 AUDIO
TITLE "Ant-hill Builder"
PERFORMER "Ircha"
INDEX 01 00:00:00
FILE "02 - City Shepherds.wav" WAVE
TRACK 02 AUDIO
TITLE "City Shepherds"
PERFORMER "Ircha"
INDEX 01 00:00:00
FILE "03 - Sleeping deep in the Moss.wav" WAVE
TRACK 03 AUDIO
TITLE "Sleeping deep in the Moss"
PERFORMER "Ircha"
INDEX 01 00:00:00
FILE "04 - Swampquake.wav" WAVE
TRACK 04 AUDIO
TITLE "Swampquake"
PERFORMER "Ircha"
INDEX 01 00:00:00
FILE "05 - Sparrows In Petagon.wav" WAVE
TRACK 05 AUDIO
TITLE "Sparrows In Petagon"
PERFORMER "Ircha"
INDEX 01 00:00:00
 
Лог проверки качества
AUDIOCHECKER v2.0 beta (build 457) - by Dester - opdester@freemail.hu
~~~~~~~~~~~~~~~~~~~~~~~~~~~~~~~~~~
-=== DO NOT EDIT THIS FILE! ===-
Path: ...\Mikolaj Trzaska Ircha Clarinet Quintet feat. Joe McPhee - Lark Uprising (2010) [FLAC]
1 -=- 01 - Ant-hill Builder.flac -=- CDDA (76%)
2 -=- 02 - City Shepherds.flac -=- CDDA (100%)
3 -=- 03 - Sleeping deep in the Moss.flac -=- CDDA (43%)
4 -=- 04 - Swampquake.flac -=- CDDA (87%)
5 -=- 05 - Sparrows In Petagon.flac -=- CDDA (92%)
Summary 79,60% CDDA
5250724
 
Состав
Joe McPhee: alt clarinet
Wacław Zimpel: bass clarinet, clarinet, toragato
Paweł Szamburski: clarinet, bass clarinet
Michał Górczyński: bass clarinet
Mikołaj Trzaska: alt clarinet, bass clarinet
Any questions -> support@pro-jazz.com. По всем вопросам пишите -> support@pro-jazz.com
23:52
163
Нет комментариев. Ваш будет первым!