Вы используете незарегистрированную версию компонента "Вкладки"!

Поиск

(Free Improvisation) Miguel Frasconi & Denman Maroney - Gleam - 2010, FLAC (tracks+.cue) lossless

(Free Improvisation) Miguel Frasconi & Denman Maroney - Gleam - 2010, FLAC (tracks+.cue) lossless
Треклист:
Miguel Frasconi & Denman Maroney / Gleam
Жанр: Free Improvisation
Страна-производитель диска: США
Год издания диска: 2010
Издатель (лейбл): Porter Records
Номер по каталогу: PORT4047
Страна: США
Аудио кодек: FLAC (*.flac)
Тип рипа: tracks+.cue
Битрейт аудио: lossless
Продолжительность: 57:25
Источник (релизер): вот.сиди (merzbow1974)
Наличие сканов в содержимом раздачи: нет
Треклист:
1.Gleam 5:51
2.Glaze 7:18
3.Glide 7:21
4.Gliss 4:49
5.Glass 24:49
6.Gloss 7:15
 
Лог создания рипа
Exact Audio Copy V0.99 prebeta 5 from 4. May 2009
EAC extraction logfile from 19. January 2011, 5:43
Unknown Artist / Unknown Title
Used drive : Optiarc DVD RW AD-7240S Adapter: 4 ID: 0
Read mode : Secure
Utilize accurate stream : Yes
Defeat audio cache : Yes
Make use of C2 pointers : No
Read offset correction : 48
Overread into Lead-In and Lead-Out : No
Fill up missing offset samples with silence : Yes
Delete leading and trailing silent blocks : No
Null samples used in CRC calculations : Yes
Used interface : Installed external ASPI interface
Gap handling : Appended to previous track
Used output format : User Defined Encoder
Selected bitrate : 128 kBit/s
Quality : High
Add ID3 tag : Yes
Command line compressor : C:\Programmi\Exact Audio Copy\Flac\flac.exe
Additional command line options : -V -8 -T "artist=%a" -T "title=%t" -T "album=%g" -T "date=%y" -T "tracknumber=%n" -T "genre=%m" %s
TOC of the extracted CD
Track | Start | Length | Start sector | End sector
---------------------------------------------------------
1 | 0:00.00 | 5:51.15 | 0 | 26339
2 | 5:51.15 | 7:18.45 | 26340 | 59234
3 | 13:09.60 | 7:21.29 | 59235 | 92338
4 | 20:31.14 | 4:49.27 | 92339 | 114040
5 | 25:20.41 | 24:49.44 | 114041 | 225759
6 | 50:10.10 | 7:15.20 | 225760 | 258404
Track 1
Filename D:\CD_DA_FINIRE\____Nuova cartella\Frasconi Miguel + Maroney Denman - Gleam - 2008\01 Track01.wav
Pre-gap length 0:00:02.00
Peak level 95.9 %
Track quality 100.0 %
Test CRC F7032854
Copy CRC F7032854
Track not present in AccurateRip database
Copy OK
Track 2
Filename D:\CD_DA_FINIRE\____Nuova cartella\Frasconi Miguel + Maroney Denman - Gleam - 2008\02 Track02.wav
Peak level 96.0 %
Track quality 100.0 %
Test CRC C9D418A7
Copy CRC C9D418A7
Track not present in AccurateRip database
Copy OK
Track 3
Filename D:\CD_DA_FINIRE\____Nuova cartella\Frasconi Miguel + Maroney Denman - Gleam - 2008\03 Track03.wav
Peak level 96.0 %
Track quality 100.0 %
Test CRC 2434C868
Copy CRC 2434C868
Track not present in AccurateRip database
Copy OK
Track 4
Filename D:\CD_DA_FINIRE\____Nuova cartella\Frasconi Miguel + Maroney Denman - Gleam - 2008\04 Track04.wav
Peak level 99.9 %
Track quality 100.0 %
Test CRC C39221CE
Copy CRC C39221CE
Track not present in AccurateRip database
Copy OK
Track 5
Filename D:\CD_DA_FINIRE\____Nuova cartella\Frasconi Miguel + Maroney Denman - Gleam - 2008\05 Track05.wav
Peak level 96.3 %
Track quality 100.0 %
Test CRC 20958838
Copy CRC 20958838
Track not present in AccurateRip database
Copy OK
Track 6
Filename D:\CD_DA_FINIRE\____Nuova cartella\Frasconi Miguel + Maroney Denman - Gleam - 2008\06 Track06.wav
Peak level 96.0 %
Track quality 100.0 %
Test CRC 3EC1A793
Copy CRC 3EC1A793
Track not present in AccurateRip database
Copy OK
None of the tracks are present in the AccurateRip database
No errors occurred
End of status report
 
Содержание индексной карты (.CUE)
REM DISCID 370D7506
REM COMMENT "ExactAudioCopy v0.99pb5"
FILE "01 Track01.wav" WAVE
TRACK 01 AUDIO
INDEX 01 00:00:00
FILE "02 Track02.wav" WAVE
TRACK 02 AUDIO
INDEX 01 00:00:00
FILE "03 Track03.wav" WAVE
TRACK 03 AUDIO
INDEX 01 00:00:00
FILE "04 Track04.wav" WAVE
TRACK 04 AUDIO
INDEX 01 00:00:00
FILE "05 Track05.wav" WAVE
TRACK 05 AUDIO
INDEX 01 00:00:00
FILE "06 Track06.wav" WAVE
TRACK 06 AUDIO
INDEX 01 00:00:00
 
Лог проверки качества
AUDIOCHECKER v2.0 beta (build 457) - by Dester - opdester@freemail.hu
~~~~~~~~~~~~~~~~~~~~~~~~~~~~~~~~~~
-=== DO NOT EDIT THIS FILE! ===-
Path: ...\[FLAC] Frasconi Miguel + Maroney Denman - Gleam - 2008
1 -=- 01 Gleam.flac -=- CDDA (85%)
2 -=- 02 Glaze.flac -=- CDDA (62%)
3 -=- 03 Glide.flac -=- CDDA (85%)
4 -=- 04 Gliss.flac -=- CDDA (54%)
5 -=- 05 Glass.flac -=- CDDA (42%)
6 -=- 06 Gloss.flac -=- CDDA (100%)
Summary 71,33% CDDA
221435492
 
Состав
Denman Maroney: hyperpiano;
Miguel Frasconi: glass objects; glassharp
По всем вопросам пишите личное сообщение пользователю M0p94ok.
07:49
226
Нет комментариев. Ваш будет первым!