Вы используете незарегистрированную версию компонента "Вкладки"!

Поиск

(Free Improvisation) Michiyo Yagi - Ingebrigt Haker Flaten - Paal Nilssen-Love - Live! at SuperDeluxe - 2006, FLAC (image+.cue), lossless

(Free Improvisation) Michiyo Yagi - Ingebrigt Haker Flaten - Paal Nilssen-Love - Live! at SuperDeluxe - 2006, FLAC (image+.cue), lossless
Треклист:
Michiyo Yagi - Ingebrigt Haker Flaten - Paal Nilssen-Love - Live! at SuperDeluxe
Жанр: Free Improvisation
Год выпуска диска: 2006
Производитель диска: Japan (Bomba Records)
Аудио кодек: FLAC
Тип рипа: image+.cue
Битрейт аудио: lossless
Продолжительность: 49.25
Трэклист:
1. Intro - Monsoon - Ai No Corrida
2. Bow Derek
3. Bla by Bla
4. Stavanger Banger
Доп. информация: Michiyo Yagi - electroacoustic 21- and 17- string kotos
Ingebrigt Haker Flaten - contrabass, electronics
Paal Nilssen-Love - drums
 
eac log
Exact Audio Copy V0.99 prebeta 4 from 23. January 2008
Отчёт EAC об извлечении, выполненном 23. февраля 2009, 1:41
Michiyo Yagi - Ingebrigt Haker Flaten - Paal Nilssen-Love / Live! at SuperDeluxe
Дисковод: Optiarc DVD RW AD-7170A Adapter: 0 ID: 1
Режим чтения : Достоверность
Использование точного потока : Да
Отключение кэша аудио : Да
Использование указателей C2 : Нет
Коррекция смещения при чтении : 48
Способность читать области Lead-in и Lead-out : Нет
Заполнение пропущенных сэмплов тишиной : Да
Удаление блоков с тишиной в начале и конце : Нет
При вычислениях CRC использовались нулевые сэмплы : Да
Интерфейс : Установленный внешний ASPI-интерфейс
Выходной формат : Пользовательский кодировщик
Выбранный битрейт : 768 kBit/s
Качество : Высокий
Добавление ID3-тэга : Нет
Утилита сжатия : C:\Program Files (x86)\Exact Audio Copy\FLAC\FLAC.EXE
Дополнительные параметры : -6 -V -T "ARTIST=%a" -T "TITLE=%t" -T "ALBUM=%g" -T "DATE=%y" -T "TRACKNUMBER=%n" -T "GENRE=%m" -T "COMMENT=%e" %s -o %d
TOC извлечённого CD
Трек | Старт | Длительность | Начальный сектор | Конечный сектор
---------------------------------------------------------------------
1 | 0:00.00 | 14:44.33 | 0 | 66332
2 | 14:44.33 | 7:51.03 | 66333 | 101660
3 | 22:35.36 | 12:55.45 | 101661 | 159830
4 | 35:31.06 | 13:53.64 | 159831 | 222369
Характеристики диапазона извлечения и сообщения об ошибках
Выбранный диапазон
Имя файла C:\Users\Роман\Documents\Michiyo Yagi - Ingebrigt Haker Flaten - Paal Nilssen-Love - Live! at SuperDeluxe.wav
Пиковый уровень 98.0 %
Качество диапазона 99.9 %
CRC копии 9959B2C9
Копирование... OK
Ошибок не произошло
AccurateRip: сводка
Трек 1 нет в базе данных
Трек 2 нет в базе данных
Трек 3 нет в базе данных
Трек 4 нет в базе данных
Ни одного трека нет в базе AccurateRip
Конец отчёта
Any questions -> support@pro-jazz.com. По всем вопросам пишите -> support@pro-jazz.com
08:26
122
Нет комментариев. Ваш будет первым!