Вы используете незарегистрированную версию компонента "Вкладки"!

Поиск

(Free Improvisation) Michel Doneda - Daunik Lazro - General Gramofon - 1988, FLAC (tracks+.cue), lossless

(Free Improvisation) Michel Doneda - Daunik Lazro - General Gramofon - 1988, FLAC (tracks+.cue), lossless
Треклист:
Michel Doneda - Daunik Lazro - General Gramofon
Жанр: Free Improvisation
Страна-производитель диска: France
Год издания диска: 1988
Издатель (лейбл): nato
Номер по каталогу: 53028.2
Аудиокодек: FLAC (*.flac)
Тип рипа: tracks+.cue
Битрейт аудио: lossless
Продолжительность: 40:06
Источник (релизер): собственный рип с оригинального диска.
Наличие сканов в содержимом раздачи: да
Треклист:
01. Le pas de Nel (M. Doneda. Avec D. Lazro, H. Burns, L. Cottle et S. Elliott) - 1:32
02. Bleu de Siam (M. Doneda - Arr. D. Lazro, H. Burns, L. Cottle et S. Elliott) - 6:07
03. Fla Flu (José María de Abreu) - 2:29
04. Jelenia Polska (D. Lazro - Arr. M. Doneda, H. Burns, L. Cottle et S. Elliott) - 5:51
05. Mothers (A. Ayler) - 3:27
06. Paradi Parada (D. Lazro - Arr. M. Doneda, H. Burns, L. Cottle et S. Elliott) - 5:51
07. Berança (M. Doneda, D. Lazro et H. Burns) - 2:49
08. Oro (M. Doneda, D. Lazro, H. Burns, L. Cottle et S. Elliott) - 3:42
09. Le serpent d'avril (M. Doneda, D. Lazro, H. Burns, L. Cottle et S. Elliott) - 5:05
10. De nous à Lee (M. Doneda et D. Lazro) - 2:05
11. Hi Beck (L. Konitz) - 1:00
 
Лог создания рипа
Exact Audio Copy V1.0 beta 2 from 29. April 2011
EAC extraction logfile from 4. February 2012, 19:00
Michel Doneda - Daunik Lazro / General Gramofon
Used drive : TSSTcorpCDDVDW SH-S222A Adapter: 1 ID: 0
Read mode : Secure
Utilize accurate stream : Yes
Defeat audio cache : Yes
Make use of C2 pointers : No
Read offset correction : 6
Overread into Lead-In and Lead-Out : No
Fill up missing offset samples with silence : Yes
Delete leading and trailing silent blocks : No
Null samples used in CRC calculations : Yes
Used interface : Native Win32 interface for Win NT & 2000
Gap handling : Appended to previous track
Used output format : User Defined Encoder
Selected bitrate : 896 kBit/s
Quality : High
Add ID3 tag : No
Command line compressor : C:\Tool\CD\EAC10\FLAC\FLAC.EXE
Additional command line options : -6 -V -T "ARTIST=%artist%" -T "TITLE=%title%" -T "ALBUM=%albumtitle%" -T "DATE=%year%" -T "TRACKNUMBER=%tracknr%" -T "GENRE=%genre%" -T "COMMENT=%comment%" -T "BAND=%albuminterpret%" -T "COMPOSER=%composer%" %haslyrics%--ta
TOC of the extracted CD
Track | Start | Length | Start sector | End sector
---------------------------------------------------------
1 | 0:00.33 | 1:32.32 | 33 | 6964
2 | 1:32.65 | 6:08.45 | 6965 | 34609
3 | 7:41.35 | 2:30.15 | 34610 | 45874
4 | 10:11.50 | 5:53.70 | 45875 | 72419
5 | 16:05.45 | 3:28.08 | 72420 | 88027
6 | 19:33.53 | 5:51.22 | 88028 | 114374
7 | 25:25.00 | 2:49.05 | 114375 | 127054
8 | 28:14.05 | 3:43.25 | 127055 | 143804
9 | 31:57.30 | 5:08.33 | 143805 | 166937
10 | 37:05.63 | 2:05.35 | 166938 | 176347
11 | 39:11.23 | 0:59.70 | 176348 | 180842
Track 1
Filename C:\! UPLOAD\Michel Doneda - Daunik Lazro - General Gramofon (1988) [FLAC] {nato}\01 - Le pas de Nel.wav
Pre-gap length 0:00:02.33
Peak level 100.0 %
Extraction speed 2.6 X
Track quality 100.0 %
Test CRC 0B28F54E
Copy CRC 0B28F54E
Track not present in AccurateRip database
Copy OK
Track 2
Filename C:\! UPLOAD\Michel Doneda - Daunik Lazro - General Gramofon (1988) [FLAC] {nato}\02 - Bleu de Siam.wav
Pre-gap length 0:00:00.07
Peak level 98.4 %
Extraction speed 3.5 X
Track quality 100.0 %
Test CRC CB1AF68E
Copy CRC CB1AF68E
Track not present in AccurateRip database
Copy OK
Track 3
Filename C:\! UPLOAD\Michel Doneda - Daunik Lazro - General Gramofon (1988) [FLAC] {nato}\03 - Fla flu.wav
Pre-gap length 0:00:02.37
Peak level 100.0 %
Extraction speed 3.1 X
Track quality 100.0 %
Test CRC 2A232F61
Copy CRC 2A232F61
Track not present in AccurateRip database
Copy OK
Track 4
Filename C:\! UPLOAD\Michel Doneda - Daunik Lazro - General Gramofon (1988) [FLAC] {nato}\04 - Jelenia polska.wav
Pre-gap length 0:00:02.07
Peak level 100.0 %
Extraction speed 3.5 X
Track quality 100.0 %
Test CRC E81CA696
Copy CRC E81CA696
Track not present in AccurateRip database
Copy OK
Track 5
Filename C:\! UPLOAD\Michel Doneda - Daunik Lazro - General Gramofon (1988) [FLAC] {nato}\05 - Mothers.wav
Pre-gap length 0:00:03.07
Peak level 63.5 %
Extraction speed 3.3 X
Track quality 100.0 %
Test CRC 30F6BFED
Copy CRC 30F6BFED
Track not present in AccurateRip database
Copy OK
Track 6
Filename C:\! UPLOAD\Michel Doneda - Daunik Lazro - General Gramofon (1988) [FLAC] {nato}\06 - Paradi parada.wav
Pre-gap length 0:00:00.60
Peak level 100.0 %
Extraction speed 3.5 X
Track quality 100.0 %
Test CRC E500AD9F
Copy CRC E500AD9F
Track not present in AccurateRip database
Copy OK
Track 7
Filename C:\! UPLOAD\Michel Doneda - Daunik Lazro - General Gramofon (1988) [FLAC] {nato}\07 - Beranca.wav
Peak level 83.3 %
Extraction speed 3.2 X
Track quality 100.0 %
Test CRC 81074C4A
Copy CRC 81074C4A
Track not present in AccurateRip database
Copy OK
Track 8
Filename C:\! UPLOAD\Michel Doneda - Daunik Lazro - General Gramofon (1988) [FLAC] {nato}\08 - Oro.wav
Peak level 98.4 %
Extraction speed 3.1 X
Track quality 100.0 %
Test CRC D830AA62
Copy CRC D830AA62
Track not present in AccurateRip database
Copy OK
Track 9
Filename C:\! UPLOAD\Michel Doneda - Daunik Lazro - General Gramofon (1988) [FLAC] {nato}\09 - Le serpent d'avril.wav
Pre-gap length 0:00:01.52
Peak level 79.0 %
Extraction speed 2.8 X
Track quality 99.9 %
Test CRC 337A14C5
Copy CRC 337A14C5
Track not present in AccurateRip database
Copy OK
Track 10
Filename C:\! UPLOAD\Michel Doneda - Daunik Lazro - General Gramofon (1988) [FLAC] {nato}\10 - De nous a Lee.wav
Pre-gap length 0:00:04.05
Peak level 39.1 %
Extraction speed 2.3 X
Track quality 99.9 %
Test CRC F2670AF3
Copy CRC F2670AF3
Track not present in AccurateRip database
Copy OK
Track 11
Filename C:\! UPLOAD\Michel Doneda - Daunik Lazro - General Gramofon (1988) [FLAC] {nato}\11 - Hi Beck.wav
Peak level 41.9 %
Extraction speed 2.0 X
Track quality 100.0 %
Test CRC 00A1EFC8
Copy CRC 00A1EFC8
Track not present in AccurateRip database
Copy OK
None of the tracks are present in the AccurateRip database
No errors occurred
End of status report
==== Log checksum 0EA7B133B0EBCE58CABF8719F9F2222D311EBE332667998CED43BC629D9B0746 ====
 
Содержание индексной карты (.CUE)
REM GENRE Jazz
REM DATE 1988
REM DISCID 9D096B0B
REM COMMENT "ExactAudioCopy v1.0b2"
CATALOG 0000000000000
PERFORMER "Michel Doneda - Daunik Lazro"
TITLE "General Gramofon"
FILE "01 - Le pas de Nel.wav" WAVE
TRACK 01 AUDIO
TITLE "Le pas de Nel"
PERFORMER "Michel Doneda - Daunik Lazro"
PREGAP 00:00:33
INDEX 01 00:00:00
TRACK 02 AUDIO
TITLE "Bleu de Siam"
PERFORMER "Michel Doneda - Daunik Lazro"
INDEX 00 01:32:25
FILE "02 - Bleu de Siam.wav" WAVE
INDEX 01 00:00:00
TRACK 03 AUDIO
TITLE "Fla flu"
PERFORMER "Michel Doneda - Daunik Lazro"
INDEX 00 06:06:08
FILE "03 - Fla flu.wav" WAVE
INDEX 01 00:00:00
TRACK 04 AUDIO
TITLE "Jelenia polska"
PERFORMER "Michel Doneda - Daunik Lazro"
INDEX 00 02:28:08
FILE "04 - Jelenia polska.wav" WAVE
INDEX 01 00:00:00
TRACK 05 AUDIO
TITLE "Mothers"
PERFORMER "Michel Doneda - Daunik Lazro"
INDEX 00 05:50:63
FILE "05 - Mothers.wav" WAVE
INDEX 01 00:00:00
TRACK 06 AUDIO
TITLE "Paradi parada"
PERFORMER "Michel Doneda - Daunik Lazro"
INDEX 00 03:27:23
FILE "06 - Paradi parada.wav" WAVE
INDEX 01 00:00:00
FILE "07 - Beranca.wav" WAVE
TRACK 07 AUDIO
TITLE "Beranca"
PERFORMER "Michel Doneda - Daunik Lazro"
INDEX 01 00:00:00
FILE "08 - Oro.wav" WAVE
TRACK 08 AUDIO
TITLE "Oro"
PERFORMER "Michel Doneda - Daunik Lazro"
INDEX 01 00:00:00
TRACK 09 AUDIO
TITLE "Le serpent d'avril"
PERFORMER "Michel Doneda - Daunik Lazro"
INDEX 00 03:41:48
FILE "09 - Le serpent d'avril.wav" WAVE
INDEX 01 00:00:00
TRACK 10 AUDIO
TITLE "De nous a Lee"
PERFORMER "Michel Doneda - Daunik Lazro"
INDEX 00 05:04:28
FILE "10 - De nous a Lee.wav" WAVE
INDEX 01 00:00:00
FILE "11 - Hi Beck.wav" WAVE
TRACK 11 AUDIO
TITLE "Hi Beck"
PERFORMER "Michel Doneda - Daunik Lazro"
INDEX 01 00:00:00
Доп. информация:
Recorded at studio DH Audio Engineering, 1988.
 
Об альбоме (сборнике)
"Michel Doneda et Daunik Lazro, figures libres du saxophone moderne, sont allés à la rencontre d'une rythmique très en vue : Hugh Burns (guitare), Laurence Cottle (guitare basse), et Stuart Elliott (batterie). Tout trois ont fait autorité aux cotés de Kate Bush, George Michael, Eric Clapton ou encore ...Black Sabbath. Le résultat est un hallucinant voyage au pays de toutes les mélodies (Thaïlande, Yougoslavie, Pologne, Inde, Brésil, Albert Ayler, Lee Konitz) mené à train d'enfer."
 
Об альбоме (сборнике)
"Bleu de Siam" est basé sur une pièce traditionnelle de Thaïlande transcrite par Ninh Le Quan; "Berança" sur une chanson de Yougoslavie; "Oro" sur une mélodie de berger de Yougoslavie; "Le serpent d'avril" sur un chant d'Inde de Ravi Prasad.
 
Состав
Michel Doneda - saxophone soprano
Daunik Lazro - saxophone alto
Hugh Burns - guitares
Laurence Cottle - guitare basse
Stuart Elliott - batterie, percussions
Any questions -> support@pro-jazz.com. По всем вопросам пишите -> support@pro-jazz.com
22:04
131
Нет комментариев. Ваш будет первым!