Вы используете незарегистрированную версию компонента "Вкладки"!

Поиск

(Free Improvisation) Maybe Monday (Fred Frith, Miya Masaoka, Larry Ochs) - Saturn's Finger - 1999, FLAC (image+.cue), lossless

(Free Improvisation) Maybe Monday (Fred Frith, Miya Masaoka, Larry Ochs) - Saturn's Finger - 1999, FLAC (image+.cue), lossless
Треклист:
Maybe Monday / Saturn's Finger
Жанр: Free Improvisation
Страна-производитель диска: Netherlands
Год издания: 1999
Издатель (лейбл): BUZZ-Records
Номер по каталогу: ZZ 76007
Аудиокодек: FLAC (*.flac)
Тип рипа: image+.cue
Битрейт аудио: lossless
Продолжительность: 66:37
Источник (релизер): cd
Наличие сканов в содержимом раздачи: нет
Треклист:
1 Saturn's Finger 33:59
2 Helix 18:47
3 Beyond The Hard Darkness 12:50
 
Лог создания рипа
Exact Audio Copy V1.0 beta 2 from 29. April 2011
EAC extraction logfile from 12. September 2012, 13:16
Maybe Monday / Saturn's Finger
Used drive : Optiarc DVD RW AD-7170A Adapter: 0 ID: 0
Read mode : Secure
Utilize accurate stream : Yes
Defeat audio cache : Yes
Make use of C2 pointers : No
Read offset correction : 48
Overread into Lead-In and Lead-Out : No
Fill up missing offset samples with silence : Yes
Delete leading and trailing silent blocks : No
Null samples used in CRC calculations : Yes
Used interface : Native Win32 interface for Win NT & 2000
Used output format : User Defined Encoder
Selected bitrate : 320 kBit/s
Quality : High
Add ID3 tag : No
Command line compressor : C:\Program Files\Exact Audio Copy\Flac\flac.exe
Additional command line options : -V -8 -T "Date=%year%" -T "Genre=%genre%" %source%
TOC of the extracted CD
Track | Start | Length | Start sector | End sector
---------------------------------------------------------
1 | 0:00.00 | 33:59.71 | 0 | 152995
2 | 33:59.71 | 18:47.11 | 152996 | 237531
3 | 52:47.07 | 12:50.47 | 237532 | 295328
Range status and errors
Selected range
Filename K:\ЕАС\Maybe Monday - Saturn's Finger.wav
Peak level 99.0 %
Extraction speed 2.2 X
Range quality 100.0 %
Test CRC 79A31A48
Copy CRC 79A31A48
Copy OK
No errors occurred
AccurateRip summary
Track 1 not present in database
Track 2 not present in database
Track 3 not present in database
None of the tracks are present in the AccurateRip database
End of status report
==== Log checksum AA6EC9E2543A074958BB790B20CF06CFEA61FBB0A235BC1EFF91056C170E02A8 ====
 
Содержание индексной карты (.CUE)
REM GENRE Avantgarde
REM DATE 1999
REM DISCID 1C0F6103
REM COMMENT "ExactAudioCopy v1.0b2"
PERFORMER "Maybe Monday"
TITLE "Saturn's Finger"
FILE "Maybe Monday - Saturn's Finger.flac" WAVE
TRACK 01 AUDIO
TITLE "Saturn's Finger"
PERFORMER "Maybe Monday"
ISRC 000000000000
FLAGS DCP
INDEX 01 00:00:00
TRACK 02 AUDIO
TITLE "Helix"
PERFORMER "Maybe Monday"
ISRC 000000000000
FLAGS DCP
INDEX 00 33:48:11
INDEX 01 33:59:71
TRACK 03 AUDIO
TITLE "Beyond the Hard Darkness"
PERFORMER "Maybe Monday"
ISRC 000000000000
FLAGS DCP
INDEX 00 52:43:23
INDEX 01 52:47:07
Доп. информация: Recorded live 2nd & 3rd July 1998 at Unity Temple, Chicago.
 
Состав
Electric Guitar – Fred Frith
Koto [With Live Sampling], Sampler [Ultra-sound Triggered Samples] – Miya Masaoka
Tenor Saxophone, Sopranino Saxophone, Producer – Larry Ochs
Any questions -> support@pro-jazz.com. По всем вопросам пишите -> support@pro-jazz.com
03:46
147
Нет комментариев. Ваш будет первым!