Вы используете незарегистрированную версию компонента "Вкладки"!

Поиск

(Free Improvisation) Matthew Shipp - Songs - 2002, FLAC (tracks+.cue) lossless

Треклист:
Matthew Shipp - Songs
Жанр: Free Improvisation
Страна-производитель диска: Italy
Год издания диска: 2002
Издатель (лейбл): Splasc(H) Records
Номер по каталогу: CDH 840.2
Аудио кодек: FLAC (*.flac)
Тип рипа: tracks+.cue
Битрейт аудио: lossless
Продолжительность: 47:24
Источник (релизер): собственный рип с оригинального диска.
Наличие сканов в содержимом раздачи: да
Треклист:
01. We Free Kings (John Henry Hopkins Jr.)
02. There Will Never Be Another You (Warren and Gordon)
03. Almighty Fortress Is Our God (Martin Luther)
04. Con Alma (Dizzy Gillespie)
05. Angel Eyes (Brent and Dennis)
06. On Green Dolphin Street (Kaper and Washington)
07. Bags' Groove (Jackson)
08. Yesterdays (Kern and Harbach)
09. East Broadway Run Down (Sonny Rollins)
 
Лог создания рипа
Exact Audio Copy V0.99 prebeta 5 from 4. May 2009
EAC extraction logfile from 27. March 2011, 1:31
Matthew Shipp / Songs
Used drive : TSSTcorpCDDVDW SH-S222A Adapter: 1 ID: 0
Read mode : Secure
Utilize accurate stream : Yes
Defeat audio cache : Yes
Make use of C2 pointers : No
Read offset correction : 6
Overread into Lead-In and Lead-Out : No
Fill up missing offset samples with silence : Yes
Delete leading and trailing silent blocks : No
Null samples used in CRC calculations : Yes
Used interface : Installed external ASPI interface
Gap handling : Appended to previous track
Used output format : User Defined Encoder
Selected bitrate : 768 kBit/s
Quality : High
Add ID3 tag : No
Command line compressor : C:\Tool\Compress\FLAC\flac.exe
Additional command line options : -8 -V -T "ARTIST=%a" -T "TITLE=%t" -T "ALBUM=%g" -T "DATE=%y" -T "TRACKNUMBER=%n" -T "TOTALTRACKS=%x" -T "GENRE=%m" -T "ALBUM ARTIST=%v" -T "COMMENT=EAC V0.99 prebeta 5, Secure Mode, Test & Copy, AccurateRip, FLAC -8" %s
TOC of the extracted CD
Track | Start | Length | Start sector | End sector
---------------------------------------------------------
1 | 0:00.00 | 4:19.41 | 0 | 19465
2 | 4:19.41 | 5:45.59 | 19466 | 45399
3 | 10:05.25 | 5:04.04 | 45400 | 68203
4 | 15:09.29 | 8:21.48 | 68204 | 105826
5 | 23:31.02 | 5:37.37 | 105827 | 131138
6 | 29:08.39 | 3:56.45 | 131139 | 148883
7 | 33:05.09 | 3:28.62 | 148884 | 164545
8 | 36:33.71 | 5:37.19 | 164546 | 189839
9 | 42:11.15 | 5:17.70 | 189840 | 213684
Track 1
Filename C:\! UPLOAD\Matthew Shipp - Songs (2002) [FLAC] {Splasc(H)}\01 - We Free Kings.wav
Pre-gap length 0:00:02.00
Peak level 98.8 %
Track quality 100.0 %
Test CRC 3DDB5DFA
Copy CRC 3DDB5DFA
Track not present in AccurateRip database
Copy OK
Track 2
Filename C:\! UPLOAD\Matthew Shipp - Songs (2002) [FLAC] {Splasc(H)}\02 - There Will Never Be Another You.wav
Pre-gap length 0:00:03.00
Peak level 98.8 %
Track quality 100.0 %
Test CRC 6EB2A90E
Copy CRC 6EB2A90E
Track not present in AccurateRip database
Copy OK
Track 3
Filename C:\! UPLOAD\Matthew Shipp - Songs (2002) [FLAC] {Splasc(H)}\03 - Almighty Fortress Is Our God.wav
Pre-gap length 0:00:03.49
Peak level 98.8 %
Track quality 100.0 %
Test CRC 9F7F1814
Copy CRC 9F7F1814
Track not present in AccurateRip database
Copy OK
Track 4
Filename C:\! UPLOAD\Matthew Shipp - Songs (2002) [FLAC] {Splasc(H)}\04 - Con Alma.wav
Pre-gap length 0:00:03.00
Peak level 98.8 %
Track quality 100.0 %
Test CRC 87A98206
Copy CRC 87A98206
Track not present in AccurateRip database
Copy OK
Track 5
Filename C:\! UPLOAD\Matthew Shipp - Songs (2002) [FLAC] {Splasc(H)}\05 - Angel Eyes.wav
Pre-gap length 0:00:04.82
Peak level 98.8 %
Track quality 100.0 %
Test CRC CE86BA6E
Copy CRC CE86BA6E
Track not present in AccurateRip database
Copy OK
Track 6
Filename C:\! UPLOAD\Matthew Shipp - Songs (2002) [FLAC] {Splasc(H)}\06 - On Green Dolphin Street.wav
Pre-gap length 0:00:02.16
Peak level 100.0 %
Track quality 100.0 %
Test CRC ECDF5B80
Copy CRC ECDF5B80
Track not present in AccurateRip database
Copy OK
Track 7
Filename C:\! UPLOAD\Matthew Shipp - Songs (2002) [FLAC] {Splasc(H)}\07 - Bag's Groove.wav
Pre-gap length 0:00:02.66
Peak level 98.8 %
Track quality 100.0 %
Test CRC 9BE972BF
Copy CRC 9BE972BF
Track not present in AccurateRip database
Copy OK
Track 8
Filename C:\! UPLOAD\Matthew Shipp - Songs (2002) [FLAC] {Splasc(H)}\08 - Yesterdays.wav
Pre-gap length 0:00:03.09
Peak level 98.8 %
Track quality 100.0 %
Test CRC 4485A95A
Copy CRC 4485A95A
Track not present in AccurateRip database
Copy OK
Track 9
Filename C:\! UPLOAD\Matthew Shipp - Songs (2002) [FLAC] {Splasc(H)}\09 - East Broadway Run Down.wav
Pre-gap length 0:00:05.00
Peak level 98.8 %
Track quality 100.0 %
Test CRC 543F618B
Copy CRC 543F618B
Track not present in AccurateRip database
Copy OK
None of the tracks are present in the AccurateRip database
No errors occurred
End of status report
 
Содержание индексной карты (.CUE)
REM GENRE Jazz
REM DATE 2002
REM DISCID 700B2109
REM COMMENT "ExactAudioCopy v0.99pb5"
PERFORMER "Matthew Shipp"
TITLE "Songs"
FILE "01 - We Free Kings.wav" WAVE
TRACK 01 AUDIO
TITLE "We Free Kings"
PERFORMER "Matthew Shipp"
INDEX 01 00:00:00
TRACK 02 AUDIO
TITLE "There Will Never Be Another You"
PERFORMER "Matthew Shipp"
INDEX 00 04:16:41
FILE "02 - There Will Never Be Another You.wav" WAVE
INDEX 01 00:00:00
TRACK 03 AUDIO
TITLE "Almighty Fortress Is Our God"
PERFORMER "Matthew Shipp"
INDEX 00 05:42:22
FILE "03 - Almighty Fortress Is Our God.wav" WAVE
INDEX 01 00:00:00
TRACK 04 AUDIO
TITLE "Con Alma"
PERFORMER "Matthew Shipp"
INDEX 00 05:01:04
FILE "04 - Con Alma.wav" WAVE
INDEX 01 00:00:00
TRACK 05 AUDIO
TITLE "Angel Eyes"
PERFORMER "Matthew Shipp"
INDEX 00 08:16:61
FILE "05 - Angel Eyes.wav" WAVE
INDEX 01 00:00:00
TRACK 06 AUDIO
TITLE "On Green Dolphin Street"
PERFORMER "Matthew Shipp"
INDEX 00 05:35:25
FILE "06 - On Green Dolphin Street.wav" WAVE
INDEX 01 00:00:00
TRACK 07 AUDIO
TITLE "Bag's Groove"
PERFORMER "Matthew Shipp"
INDEX 00 03:53:70
FILE "07 - Bag's Groove.wav" WAVE
INDEX 01 00:00:00
TRACK 08 AUDIO
TITLE "Yesterdays"
PERFORMER "Matthew Shipp"
INDEX 00 03:25:55
FILE "08 - Yesterdays.wav" WAVE
INDEX 01 00:00:00
TRACK 09 AUDIO
TITLE "East Broadway Run Down"
PERFORMER "Matthew Shipp"
INDEX 00 05:32:19
FILE "09 - East Broadway Run Down.wav" WAVE
INDEX 01 00:00:00
Доп. информация:
Recorded at The Studio on November 18, 2001.
 
Об альбоме (сборнике)
Review courtesy of All About Jazz:
The first track “We Free Kings” is a modification of a familiar Christmas tune (made famous by Roland Kirk). Whoops - I raised my eyebrows when I heard that one. I thought: “Uh-oh, is this some kind of avant-Christmas record?” Thankfully not, although a little commercialism would be acceptable from Shipp — he's been slugging it out in the free jazz trenches for years, playing uncompromising and forward-looking music. His other recent release NuBop (Thirsty Ear) has an accessibility and booty-shaking potential, but it's still uncompromising and forward-looking enough to ensure low sales. So forgive Shipp for an Xmas tune. He runs through some recognizable material: ”There Will Never Be Another You”, “Con Alma”, ”Angel Eyes”, “On Green Dolphin Street”, “Bags' Groove”, and “Yesterdays”. But it's not a standard standards date from the Keith Jarrett School. It's standards from the mind of Matthew Shipp, and he opens himself up here. Without the clutter or strong personalities of his usual sidemen and collaborators — he sounds naked. It's all Shipp, working through the tunes, and the results are obtuse and complex. He gets hung up on certain ideas and rides 'em like a wave. He slams the keyboard like a demon and cuts back into light with sparkling and fragmented lines. Like Richter, his work speaks about personal commitment, and embracing form while moving away from it. Shipp's Songs radiates a dark power.
 
Состав
Matthew Shipp - solo piano
Any questions -> support@pro-jazz.com. По всем вопросам пишите -> support@pro-jazz.com
10:33
173
Нет комментариев. Ваш будет первым!