Вы используете незарегистрированную версию компонента "Вкладки"!

Поиск

(Free Improvisation) Matt Lavelle & Daniel Carter - Matt Lavelle and Daniel Carter - 2004, FLAC (tracks+.cue) lossless

Треклист:
Matt Lavelle & Daniel Carter - Matt Lavelle and Daniel Carter
Жанр: Free Improvisation
Страна-производитель диска: USA
Год издания диска: 2004
Издатель (лейбл): self-released
Номер по каталогу: n.n.
Аудио кодек: FLAC (*.flac)
Тип рипа: tracks+.cue
Битрейт аудио: lossless
Продолжительность: 54:08
Источник (релизер): собственный рип с оригинального диска.
Наличие сканов в содержимом раздачи: да
Треклист:
01. Mouth In The South
02. Old Souls
03. Moon Under Water
04. Texas of the North
 
Лог создания рипа
Exact Audio Copy V0.99 prebeta 5 from 4. May 2009
EAC extraction logfile from 23. February 2011, 0:06
Matt Lavelle and Daniel Carter / Matt Lavelle_Daniel Carter
Used drive : TSSTcorpCDDVDW SH-S222A Adapter: 1 ID: 0
Read mode : Secure
Utilize accurate stream : Yes
Defeat audio cache : Yes
Make use of C2 pointers : No
Read offset correction : 6
Overread into Lead-In and Lead-Out : No
Fill up missing offset samples with silence : Yes
Delete leading and trailing silent blocks : No
Null samples used in CRC calculations : Yes
Used interface : Installed external ASPI interface
Gap handling : Appended to previous track
Used output format : User Defined Encoder
Selected bitrate : 768 kBit/s
Quality : High
Add ID3 tag : No
Command line compressor : C:\Tool\Compress\FLAC\flac.exe
Additional command line options : -V -8 -T "ARTIST=%a" -T "TITLE=%t" -T "ALBUM=%g" -T "TRACKNUMBER=%n" -T "GENRE=%m" %s
TOC of the extracted CD
Track | Start | Length | Start sector | End sector
---------------------------------------------------------
1 | 0:00.01 | 19:32.21 | 1 | 87921
2 | 19:32.22 | 10:37.58 | 87922 | 135754
3 | 30:10.05 | 14:41.11 | 135755 | 201840
4 | 44:51.16 | 9:16.65 | 201841 | 243605
Track 1
Filename C:\! UPLOAD\Matt Lavelle and Daniel Carter - Matt Lavelle_Daniel Carter (2004) [FLAC]\01 - Mouth in the South.wav
Pre-gap length 0:00:02.01
Peak level 97.5 %
Track quality 100.0 %
Test CRC C0261434
Copy CRC C0261434
Track not present in AccurateRip database
Copy OK
Track 2
Filename C:\! UPLOAD\Matt Lavelle and Daniel Carter - Matt Lavelle_Daniel Carter (2004) [FLAC]\02 - Old Souls.wav
Peak level 100.0 %
Track quality 100.0 %
Test CRC 6AC562A4
Copy CRC 6AC562A4
Track not present in AccurateRip database
Copy OK
Track 3
Filename C:\! UPLOAD\Matt Lavelle and Daniel Carter - Matt Lavelle_Daniel Carter (2004) [FLAC]\03 - Moon Under Water.wav
Peak level 100.0 %
Track quality 100.0 %
Test CRC 6D859665
Copy CRC 6D859665
Track not present in AccurateRip database
Copy OK
Track 4
Filename C:\! UPLOAD\Matt Lavelle and Daniel Carter - Matt Lavelle_Daniel Carter (2004) [FLAC]\04 - Texas of the North.wav
Peak level 97.4 %
Track quality 99.9 %
Test CRC 919DA79A
Copy CRC 919DA79A
Track not present in AccurateRip database
Copy OK
None of the tracks are present in the AccurateRip database
No errors occurred
End of status report
 
Содержание индексной карты (.CUE)
REM GENRE Jazz
REM DATE 2004
REM DISCID 2F0CB004
REM COMMENT "ExactAudioCopy v0.99pb5"
PERFORMER "Matt Lavelle and Daniel Carter"
TITLE "Matt Lavelle_Daniel Carter"
FILE "01 - Mouth in the South.wav" WAVE
TRACK 01 AUDIO
TITLE "Mouth in the South"
PERFORMER "Matt Lavelle and Daniel Carter"
FLAGS DCP
PREGAP 00:00:01
INDEX 01 00:00:00
FILE "02 - Old Souls.wav" WAVE
TRACK 02 AUDIO
TITLE "Old Souls"
PERFORMER "Matt Lavelle and Daniel Carter"
FLAGS DCP
INDEX 01 00:00:00
FILE "03 - Moon Under Water.wav" WAVE
TRACK 03 AUDIO
TITLE "Moon Under Water"
PERFORMER "Matt Lavelle and Daniel Carter"
FLAGS DCP
INDEX 01 00:00:00
FILE "04 - Texas of the North.wav" WAVE
TRACK 04 AUDIO
TITLE "Texas of the North"
PERFORMER "Matt Lavelle and Daniel Carter"
FLAGS DCP
INDEX 01 00:00:00
Доп. информация:
without sleeve
 
Состав
Matt Lavelle - trumpet, flugelhorn, bass clarinet
Daniel Carter - trumpet, tenor sax, alto sax, clarinet, flute
По всем вопросам пишите личное сообщение пользователю M0p94ok.
09:07
186
Нет комментариев. Ваш будет первым!