Вы используете незарегистрированную версию компонента "Вкладки"!

Поиск

(Free Improvisation) Mats Gustafsson (ft. Liudas Mockunas, Eugenius Kanevicius, Arkadijus Gotesmanas, Marijus Aleksa)- The Vilnius Explosion - 2008, FLAC (tracks+.cue), lossless

Треклист:
Mats Gustafsson - The Vilnius Explosion
Жанр: Free Improvisation
Год выпуска диска: 2008
Производитель диска: NoBusiness Records (NBCD1)
Источник: моя пластинка
Аудио кодек: FLAC
Тип рипа: tracks+.cue
Битрейт аудио: lossless
Продолжительность: 55:43
Трэклист:
1 Untitled (Just Say No) 31:32
2 Untitled (We Don't Remember) 12:41
3 Untitled (Shield) 10:13
4 Untitled (The End) 1:11
Recorded feb 9th 2008 at Vilniaus Mažasis Teatras
Mats Gustafsson: baritone and slide saxophones, alto fluteophone
Liudas Mockūnas: soprano, tenor and baritone saxophone, bass clarinet
Eugenius Kanevičius: bass
Arkadijus Gotesmanas: drums
Marijus Aleksa: drums
И ещё одна пластинка, записанная в тот же день - The Vilnius Implosion
 
Отчёт EAC
Exact Audio Copy V0.99 prebeta 4 from 23. January 2008
Отчёт EAC об извлечении, выполненном 21. марта 2010, 9:48
Mats Gustafsson / The Vilnius Explosion
Дисковод: ASUS DRW-20B1LT Adapter: 0 ID: 0
Режим чтения : Достоверность
Использование точного потока : Да
Отключение кэша аудио : Да
Использование указателей C2 : Нет
Коррекция смещения при чтении : 6
Способность читать области Lead-in и Lead-out : Нет
Заполнение пропущенных сэмплов тишиной : Да
Удаление блоков с тишиной в начале и конце : Нет
При вычислениях CRC использовались нулевые сэмплы : Да
Интерфейс : Установленный внешний ASPI-интерфейс
Обработка зазоров : Добавлено к предыдущему треку
Выходной формат : Пользовательский кодировщик
Выбранный битрейт : 768 kBit/s
Качество : Высокий
Добавление ID3-тэга : Нет
Утилита сжатия : C:\Program Files\Exact Audio Copy\FLAC\FLAC.EXE
Дополнительные параметры : -8 -V -T "ARTIST=%a" -T "TITLE=%t" -T "ALBUM=%g" -T "DATE=%y" -T "TRACKNUMBER=%n" -T "GENRE=%m" -T "COMMENT=EAC FLAC -8" %s
TOC извлечённого CD
Трек | Старт | Длительность | Начальный сектор | Конечный сектор
---------------------------------------------------------------------
1 | 0:00.00 | 31:34.19 | 0 | 142068
2 | 31:34.19 | 12:43.08 | 142069 | 199301
3 | 44:17.27 | 10:15.46 | 199302 | 245472
4 | 54:32.73 | 1:10.35 | 245473 | 250757
Трек 1
Имя файла H:\черновики\the vilinius explosion\01 - Untitled (Just Say No).wav
Длина предзазора 0:00:02.00
Пиковый уровень 100.0 %
Качество трека 100.0 %
CRC теста 61EFB84F
CRC копии 61EFB84F
Точное извлечение (достоверность 1) [681C66D8]
Копирование... OK
Трек 2
Имя файла H:\черновики\the vilinius explosion\02 - Untitled (We don't Remember).wav
Длина предзазора 0:00:04.00
Пиковый уровень 89.8 %
Качество трека 100.0 %
CRC теста 275BD4DC
CRC копии 275BD4DC
Точное извлечение (достоверность 1) [58B430B7]
Копирование... OK
Трек 3
Имя файла H:\черновики\the vilinius explosion\03 - Untitled (Shield).wav
Длина предзазора 0:00:03.00
Пиковый уровень 98.9 %
Качество трека 99.9 %
CRC теста A659399D
CRC копии A659399D
Точное извлечение (достоверность 1) [E3935BCF]
Копирование... OK
Трек 4
Имя файла H:\черновики\the vilinius explosion\04 - Untitled (The End).wav
Длина предзазора 0:00:02.00
Пиковый уровень 95.7 %
Качество трека 100.0 %
CRC теста FE3A63CD
CRC копии FE3A63CD
Точное извлечение (достоверность 1) [3B88F784]
Копирование... OK
Все треки извлечены точно
Ошибок не произошло
Конец отчёта
 
cue
REM GENRE Jazz
REM DATE 2008
REM DISCID 400D0F04
REM COMMENT "ExactAudioCopy v0.99pb4"
PERFORMER "Mats Gustafsson"
TITLE "The Vilnius Explosion"
FILE "01 - Untitled (Just Say No).wav" WAVE
TRACK 01 AUDIO
TITLE "Untitled (Just Say No)"
PERFORMER "Mats Gustafsson"
FLAGS DCP
INDEX 01 00:00:00
TRACK 02 AUDIO
TITLE " Untitled (We don't Remember)"
PERFORMER "Mats Gustafsson"
FLAGS DCP
INDEX 00 31:30:19
FILE "02 - Untitled (We don't Remember).wav" WAVE
INDEX 01 00:00:00
TRACK 03 AUDIO
TITLE "Untitled (Shield)"
PERFORMER "Mats Gustafsson"
FLAGS DCP
INDEX 00 12:40:08
FILE "03 - Untitled (Shield).wav" WAVE
INDEX 01 00:00:00
TRACK 04 AUDIO
TITLE "Untitled (The End)"
PERFORMER "Mats Gustafsson"
FLAGS DCP
INDEX 00 10:13:46
FILE "04 - Untitled (The End).wav" WAVE
INDEX 01 00:00:00
Any questions -> support@pro-jazz.com. По всем вопросам пишите -> support@pro-jazz.com
20:06
183
Нет комментариев. Ваш будет первым!